<?xml version="1.0" standalone="no"?>
<!DOCTYPE svg PUBLIC "-//W3C//DTD SVG 1.1//EN" "http://www.w3.org/Graphics/SVG/1.1/DTD/svg11.dtd" >
<svg xmlns="http://www.w3.org/2000/svg" xmlns:xlink="http://www.w3.org/1999/xlink" version="1.1">
<metadata>
Created by FontForge 20201107 at Wed Nov  2 22:57:17 2011
 By 
2011, Dan Sayers (i@iotic.com)
</metadata>
<defs>
<font id="AveriaSans-Light" horiz-adv-x="1146" >
  <font-face 
    font-family="Averia Sans"
    font-weight="400"
    font-stretch="normal"
    units-per-em="2048"
    panose-1="2 0 6 3 0 0 0 0 0 4"
    ascent="1594"
    descent="-454"
    x-height="1025"
    cap-height="1439"
    bbox="-220 -418 2078 1847"
    underline-thickness="98"
    underline-position="-240"
    unicode-range="U+0020-25CA"
  />
<missing-glyph horiz-adv-x="1152" 
d="M53 40v200l1 25v451q0 692 2 697q7 18 83 18h845q99 0 103 -16.5t4 -402.5v-424l1 -100v-475q0 -35 -31.5 -38.5t-276.5 -3.5h-449q-261 0 -271.5 6t-10.5 63zM677 1331h-31l-10 -1h-61q-356 0 -356 -8.5t52 -84t79.5 -118t49.5 -73.5t96 -145.5t79 -114.5t63 89.5
t67 103.5t23 34l123 186q80 114 80 123t-254 9zM993 635v119q0 478 -5 478t-54 -75t-175.5 -256t-126.5 -198t76.5 -126.5t175 -260.5t104 -151t5.5 470zM150 725v-368q0 -196 5 -196t110 161l61 90q22 34 35 52.5t34.5 51.5t68.5 100t47 73v10q0 8 -132 201t-139 204
l-86 127q-4 0 -4 -506zM814 65q109 0 109 10q0 21 -248 382q-8 12 -54 83t-50 71l-49 -75l-5 -9l-38 -58q-4 -7 -11 -17q-247 -359 -247 -382q0 -1 18 -1l10 -1l9 -1l69 -2h487z" />
    <glyph glyph-name=".notdef" horiz-adv-x="1152" 
d="M53 40v200l1 25v451q0 692 2 697q7 18 83 18h845q99 0 103 -16.5t4 -402.5v-424l1 -100v-475q0 -35 -31.5 -38.5t-276.5 -3.5h-449q-261 0 -271.5 6t-10.5 63zM677 1331h-31l-10 -1h-61q-356 0 -356 -8.5t52 -84t79.5 -118t49.5 -73.5t96 -145.5t79 -114.5t63 89.5
t67 103.5t23 34l123 186q80 114 80 123t-254 9zM993 635v119q0 478 -5 478t-54 -75t-175.5 -256t-126.5 -198t76.5 -126.5t175 -260.5t104 -151t5.5 470zM150 725v-368q0 -196 5 -196t110 161l61 90q22 34 35 52.5t34.5 51.5t68.5 100t47 73v10q0 8 -132 201t-139 204
l-86 127q-4 0 -4 -506zM814 65q109 0 109 10q0 21 -248 382q-8 12 -54 83t-50 71l-49 -75l-5 -9l-38 -58q-4 -7 -11 -17q-247 -359 -247 -382q0 -1 18 -1l10 -1l9 -1l69 -2h487z" />
    <glyph glyph-name=".notdef" horiz-adv-x="1152" 
d="M53 40v200l1 25v451q0 692 2 697q7 18 83 18h845q99 0 103 -16.5t4 -402.5v-424l1 -100v-475q0 -35 -31.5 -38.5t-276.5 -3.5h-449q-261 0 -271.5 6t-10.5 63zM677 1331h-31l-10 -1h-61q-356 0 -356 -8.5t52 -84t79.5 -118t49.5 -73.5t96 -145.5t79 -114.5t63 89.5
t67 103.5t23 34l123 186q80 114 80 123t-254 9zM993 635v119q0 478 -5 478t-54 -75t-175.5 -256t-126.5 -198t76.5 -126.5t175 -260.5t104 -151t5.5 470zM150 725v-368q0 -196 5 -196t110 161l61 90q22 34 35 52.5t34.5 51.5t68.5 100t47 73v10q0 8 -132 201t-139 204
l-86 127q-4 0 -4 -506zM814 65q109 0 109 10q0 21 -248 382q-8 12 -54 83t-50 71l-49 -75l-5 -9l-38 -58q-4 -7 -11 -17q-247 -359 -247 -382q0 -1 18 -1l10 -1l9 -1l69 -2h487z" />
    <glyph glyph-name="glyph1" horiz-adv-x="0" 
 />
    <glyph glyph-name="glyph2" horiz-adv-x="682" 
 />
    <glyph glyph-name="space" unicode=" " horiz-adv-x="608" 
 />
    <glyph glyph-name="exclam" unicode="!" horiz-adv-x="617" 
d="M304 1457h33q44 0 58.5 -15.5t14.5 -94.5v-49l-1 -13v-36l-1 -24v-37l-17 -425l-1 -12l-3 -73l-2 -24l-7 -170q0 -88 -51 -88h-22q-51 0 -51 72l-2 24q-2 24 -2 36l-1 25l-1 12l-2 49q0 12 -1 30l-3 54t-2 49l-11 267v24l-2 37v24l-3 85v25l-1 37v120q0 65 17.5 78
t63.5 13zM412 57q0 -56 -56 -56q-8 -2 -11 -2l-14 -2h-29l-4 1l-21 3q-4 1 -7 1q-51 0 -51 55l-5 27v8l-1 8v41l4 27q0 55 53 55l3 1l4 1l29 3h18l19 -2l21 -4q46 0 46 -50l3 -11l4 -40v-21l-1 -4l-3 -31q-1 -4 -1 -8z" />
    <glyph glyph-name="quotedbl" unicode="&#x22;" horiz-adv-x="776" 
d="M604 1042q0 -84 -49 -84h-36q-33 0 -33 41q-3 20 -3 26l-2 26v13l-5 73v13l-2 19v13l-4 59v20l-2 32v13l-1 20v19l-1 27v33q0 44 13.5 57.5t72.5 13.5h12q73 0 73 -54v-13l-13 -177q-1 -7 -5.5 -51.5t-9.5 -86t-5 -52.5zM271 1033q0 -75 -63 -75h-17q-52 0 -52 267l-1 13
v14l-1 13v19l-2 33v13l-1 26v59q0 61 64 61h53q12 -2 18 -2q35 0 35 -47v-27l-1 -6l-2 -33v-13l-10 -125q-1 -7 -5.5 -51.5t-9.5 -86t-5 -52.5z" />
    <glyph glyph-name="numbersign" unicode="#" horiz-adv-x="1237" 
d="M1114 957.5q0 -39.5 -48 -57.5q-15 -5 -74.5 -10.5t-76 -20.5t-25.5 -55q-32 -151 -32 -213q0 -30 67 -38q110 -13 125 -25.5t15 -42t-23.5 -45.5t-99 -20.5t-103 -35.5t-55 -174t-39.5 -162q-24 -38 -76 -38q-37 0 -37 55q0 9 24.5 146.5t24.5 169t-115.5 31.5
t-134.5 -34q-2 -3 -30 -141t-41 -174q-22 -60 -62 -60q-60 0 -60 34q0 6 23 133.5t23 179t-80.5 64.5t-80.5 48q0 43 42 65l29 10l32 6l32 5q50 12 72 40q45 59 45 200q0 57 -26 72q-12 7 -89.5 15.5t-77.5 53.5t45 63q4 2 79.5 14t99.5 35.5t50 168.5t36 167q17 38 75 38
q38 0 38 -54q0 -21 -21 -139l-26 -145q0 -40 17 -51.5t160 -11.5q55 0 73 34q4 7 28 130.5t32 149.5q24 76 75 76t51 -39l-35 -242q0 -54 16.5 -77t77.5 -41t61 -57.5zM782 879v5q0 13 -35 13h-62l-6 -1h-24q-115 0 -139 -24t-24 -100l-45 -212v-5q0 -11 27 -11h6l6 1l34 3
l30 3q12 2 18 2l12 2l54 3q69 0 82 26t25.5 108.5t26.5 124.5t14 62z" />
    <glyph glyph-name="dollar" unicode="$" horiz-adv-x="1151" 
d="M936 1232q0 -62 -37.5 -62t-109 45.5t-118 45.5t-56 -33t-9.5 -190t31 -199q13 -18 125 -85.5t167.5 -138.5t55.5 -201.5t-88 -237.5q-46 -56 -115 -89q-17 -8 -67.5 -28t-63.5 -28q-31 -20 -45 -85t-52 -65q-50 0 -63 50q-19 71 -53 94q-13 9 -91.5 39t-139 88.5
t-60.5 116.5q0 47 63 47q29 0 106.5 -60.5t136.5 -60.5t72 60q10 46 10 203.5t-18.5 184.5t-128.5 96t-164 137.5t-54 190.5t83 220q59 70 175 107q60 19 72.5 30.5t33.5 57.5t42 46h19q54 0 274 -196q67 -60 67 -100zM507 1263q0 12 -6 12h-4l-5 -1q-50 0 -105 -55
t-55 -117v-37q3 -18 3 -22q0 -63 55.5 -128t97.5 -65h4q13 0 13 86l1 11v11l-4 48l-1 6v10l-2 16v11l-1 11v11l-1 5v40l1 11v17l9 110v9zM646 148h10q59 0 115.5 64.5t56.5 135.5v49q0 67 -64 140t-117 73h-4q-3 0 -3 -124v-135l-1 -12v-24l-2 -23v-17l-1 -11v-12l-4 -50
v-12l-1 -17q0 -25 15 -25z" />
    <glyph glyph-name="percent" unicode="%" horiz-adv-x="1601" 
d="M690 1106v-59q0 -132 -72 -243t-185 -111h-30q-106 0 -181 109.5t-75 242.5v55q0 140 78 229.5t173 89.5h20l10 -1q114 0 188 -92.5t74 -219.5zM398 -31h-17q-43 0 -43 20q0 34 811 1315q60 95 110 95h17q43 0 43 -19q0 -36 -830 -1347q-41 -64 -91 -64zM1207 698h19
q114 0 184.5 -102.5t70.5 -254.5v-11q0 -145 -73 -244.5t-191 -99.5h-10q-103 0 -178.5 94t-75.5 240v46q0 142 76 237t178 95zM402 808h12l6 1q63 0 99.5 80.5t36.5 176t-36 167.5t-86 72h-24q-55 0 -94.5 -73t-39.5 -165v-28q0 -92 35 -161.5t91 -69.5zM1373 334
q0 96 -38.5 167t-91.5 71h-23q-51 0 -89.5 -71t-38.5 -151v-50q0 -96 41 -160.5t100 -64.5l6 1q47 0 89 59.5t42 140.5l2 14l1 29v15z" />
    <glyph glyph-name="ampersand" unicode="&#x26;" horiz-adv-x="1400" 
d="M1129 645q63 0 63 -67q0 -25 -18.5 -79.5t-18.5 -125.5t18.5 -107.5t80.5 -97t62 -68.5q0 -60 -64 -60t-131.5 39.5t-108 39.5t-93 -18.5t-198.5 -42.5t-148 -24h-29q-152 0 -255 83q-65 52 -98.5 127t-33.5 145v29q0 163 175 314q101 87 101 138q0 14 -25 66t-46 109
t-21 155t81 172.5t210 74.5t217 -88t88 -229q0 -92 -108 -208.5t-108 -169.5q0 -97 131 -224q53 -52 102 -52t94 84.5t81 84.5zM793 1170l-2 29q0 48 -41.5 84t-80.5 36h-28q-52 0 -92 -51.5t-40 -107.5v-28q0 -68 67 -191q23 -42 35 -42h5q40 0 109 89t69 164v12zM846 262
v12q0 2 -90.5 109t-158.5 202.5t-77 95.5h-6q-52 0 -140 -107q-54 -66 -54 -147v-34q0 -102 80.5 -175.5t194.5 -73.5h8l9 1q75 0 154.5 42.5t79.5 74.5z" />
    <glyph glyph-name="quotesingle" unicode="'" horiz-adv-x="489" 
d="M303 1033q0 -84 -57 -84h-29q-34 0 -34 55l-3 26v13l-3 40v13l-10 137v13l-4 65v14l-1 26v60q2 12 2 19q0 38 79 38h18q76 0 76 -59l-1 -6v-20l-10 -139q-3 -30 -5 -47t-2 -25l-3 -27q-6 -36 -6 -52l-4 -34q-3 -18 -3 -26z" />
    <glyph glyph-name="parenleft" unicode="(" horiz-adv-x="719" 
d="M566 1515q50 0 50 -27q0 -15 -86 -158t-121 -249q-74 -222 -74 -478.5t54 -422.5t106 -253q120 -200 120 -203q0 -36 -40 -36h-18q-54 0 -136 108q-170 225 -225 508q-30 158 -30 257v66q0 295 133 575q66 140 170 259q47 54 97 54z" />
    <glyph glyph-name="parenright" unicode=")" horiz-adv-x="716" 
d="M165 -310h-17q-42 0 -42 35q0 15 48.5 87t88.5 138t72 163q75 225 75 481q0 410 -170 692q-113 188 -113 202q0 28 49.5 28t130.5 -100q164 -202 231 -509q33 -150 33 -299l-1 -22q0 -292 -119 -559q-54 -120 -136 -228.5t-130 -108.5z" />
    <glyph glyph-name="asterisk" unicode="*" horiz-adv-x="918" 
d="M450 1448h19q61 0 61 -66l-21 -188q0 -10 19 -10q1 0 70.5 40t94.5 40q68 0 68 -42q0 -49 -39 -90q-12 -12 -56.5 -28.5t-44.5 -31.5q2 -12 2 -28.5t31.5 -53.5t31.5 -81.5t-25 -44.5q-3 0 -12 2l-26 6q-45 8 -59 8t-33 -30.5t-27 -30.5h-10l-13 2l-30 7q-25 -5 -37 -5
q-18 0 -26.5 29.5t-31.5 29.5l-58 -6q-39 -4 -48 -4q-33 0 -33 57l72 105q26 38 26 54q0 7 -43 24t-58 28q-55 40 -55 89v14q0 30 55 30q27 0 101.5 -42t81.5 -42q16 0 16 19.5t-4 57.5l-12 133q0 49 53 49z" />
    <glyph glyph-name="plus" unicode="+" horiz-adv-x="1206" 
d="M602 162h-35q-30 0 -30 208t-6 215.5t-165 7.5t-184 5t-25 43v20q0 55 17 65t185 10t172.5 5t4.5 179.5t6 210t46 35.5h36q37 0 42 -31q3 -20 3 -202t6 -189t164.5 -7t185 -5.5t26.5 -44.5l-1 -19v-20q0 -43 -32 -50q-18 -4 -178 -4t-165.5 -6t-5.5 -197.5t-8 -210
t-59 -18.5z" />
    <glyph glyph-name="comma" unicode="," horiz-adv-x="571" 
d="M189 -282h-6q-29 0 -29 42v5q0 10 22 35q68 76 69 169q0 23 -17.5 36t-28 32t-10.5 87.5t16.5 91.5t74.5 23h14q62 0 83 -18.5t21 -81.5v-29l-1 -7l-1 -22l-2 -30q0 -88 -61 -201q-29 -54 -76.5 -93t-67.5 -39z" />
    <glyph glyph-name="hyphen" unicode="-" horiz-adv-x="732" 
d="M525 643q118 0 118 -42v-63q0 -38 -215 -38h-274q-63 0 -63 48v38q0 46 18.5 51t267.5 5l107 1h41z" />
    <glyph glyph-name="period" unicode="." horiz-adv-x="562" 
d="M340 230q44 0 44 -39l4 -19l3 -28v-34q0 -66 -20 -91t-94 -25h-8l-4 1q-84 0 -84 40q-6 24 -6 31l-2 20v37l4 34q0 74 73 74q8 2 12 2l16 2h28l4 -1l23 -3q4 -1 7 -1z" />
    <glyph glyph-name="slash" unicode="/" horiz-adv-x="811" 
d="M767 1486v-14q0 -16 -43 -123t-74 -190.5t-67 -176.5l-14 -35q-5 -15 -14.5 -39t-15 -39.5t-17 -44t-17 -44t-17 -44t-21.5 -57t-19 -50.5l-21 -53l-13 -36l-14 -35q-16 -42 -30 -81t-57 -148l-48 -124q-23 -59 -27 -70l-13 -35q-17 -41 -27 -68t-21 -54q-24 -57 -72 -57
h-17q-56 0 -56 15q0 84 570 1509q44 109 93 109h17q55 0 55 -15z" />
    <glyph glyph-name="zero" unicode="0" horiz-adv-x="1156" 
d="M557 1449h38h4q97 0 173 -51q158 -104 217 -362q32 -139 32 -291v-22l-1 -22q0 -329 -119 -523t-320 -194h-18q-95 0 -177 51q-249 153 -249 693q0 342 128 541q53 81 132 130.5t160 49.5zM843 680v102q0 222 -69 372t-191 150h-13q-115 0 -185.5 -154.5t-70.5 -396.5
v-86q0 -233 68 -381q37 -80 85 -118t96 -38h25q113 0 184 153.5t71 396.5z" />
    <glyph glyph-name="one" unicode="1" horiz-adv-x="1076" 
d="M628 4h-35q-71 0 -98 40q-48 71 -48 193q0 33 26.5 105t33 109t6.5 290.5t-47 356.5q-22 47 -93 55q-105 11 -105 37q0 41 63 81q205 132 268 132q36 0 49 -21t23.5 -94.5t10.5 -413.5t4.5 -392t31.5 -134t27 -128l-1 -19v-19q0 -81 -49 -151q-19 -27 -67 -27z" />
    <glyph glyph-name="two" unicode="2" horiz-adv-x="1136" 
d="M131 58v27q0 116 352 468q174 174 220 238q89 124 89 242t-83 186q-61 50 -145 50t-144.5 -30.5t-128.5 -91.5t-104 -61q-45 0 -45 66q0 33 35.5 84.5t120.5 109.5q124 84 262 84h33q77 0 153 -30q136 -55 194 -187q32 -73 32 -152q0 -146 -95 -287q-61 -90 -283 -303
t-222 -279q0 -29 255 -29t313.5 -15t58.5 -64q0 -77 -71 -77l-214 7l-225 -1q-287 0 -311 5q-47 10 -47 40z" />
    <glyph glyph-name="three" unicode="3" horiz-adv-x="1136" 
d="M191 1167q-30 0 -30 34t35 76.5t108 82.5q132 72 287.5 72t241 -85.5t85.5 -201t-35.5 -181.5t-90.5 -117.5t-55 -59.5q0 -3 78 -51q176 -109 176 -309.5t-135.5 -318.5t-333.5 -118h-32q-117 0 -241 69.5t-124 129.5v25q0 49 67 49q27 0 133.5 -61t200.5 -61
q137 0 212 79t75 192t-77.5 183t-207.5 87q-74 10 -86 18q-32 20 -32 66q0 36 104 68q227 69 227 281q0 73 -60 118t-149 45t-200 -55.5t-141 -55.5z" />
    <glyph glyph-name="four" unicode="4" horiz-adv-x="1159" 
d="M757 9q-35 0 -43.5 17t-8.5 150.5t-26 157.5q-39 36 -256 36t-273 17q-39 12 -39 75t52 144q278 435 491 728q51 70 78 82.5t94 12.5q46 0 46 -124l-1 -22q-1 -22 -1 -44l-2 -44q-1 -23 -1 -45l-3 -66l-3 -176v-44q0 -262 17.5 -295.5t84.5 -51.5t67 -75q0 -36 -14 -47
t-63 -22.5t-64 -27.5t-15 -106l3 -106q0 -84 -14 -104t-106 -20zM706 1152q0 13 -2 13h-3q-5 0 -47 -67t-213.5 -316.5t-171.5 -256t153 -6.5h88l9 1l28 1l37 2q70 0 87 14q20 16 20 86l3 57v38l1 19v38l1 18v19l1 19v19l2 38v19l1 10v19l3 86v28l1 10v19l2 38v35z" />
    <glyph glyph-name="five" unicode="5" horiz-adv-x="1137" 
d="M199 884.5q0 69.5 48 371.5q13 79 38 108q45 52 326 52q90 0 132 2l63 4q42 2 62 2h29q53 0 53 -34q0 -83 -52 -103t-252.5 -20t-231.5 -42q-45 -62 -45 -211q0 -59 12 -80.5t81 -21.5l31 3q16 1 85 1t153 -34q179 -71 241 -245q26 -73 26 -165q0 -199 -120 -333
q-64 -71 -159 -111.5t-189 -40.5h-33q-106 0 -235 60t-129 117v26q0 56 70 56q13 0 152 -71q82 -42 188.5 -42t196 87.5t89.5 232t-88 226.5t-257 82l-175 -20q-49 0 -79.5 37t-30.5 106.5z" />
    <glyph glyph-name="six" unicode="6" horiz-adv-x="1148" 
d="M921 1317q0 -42 -101 -42q-295 0 -417 -236q-44 -84 -44 -153t48 -69q8 0 48 15.5t65 23t97 7.5h4q70 0 147 -37q149 -71 211 -230q36 -92 36 -198q0 -172 -101 -284t-269 -112h-26q-99 0 -191 46q-187 94 -265 337q-35 110 -35 260l1 26q0 144 50 285.5t128 234
t185.5 147.5t231.5 55h21q73 0 124.5 -20t51.5 -56zM828 409v51q0 131 -67 218t-157 87h-25q-107 0 -170 -80t-63 -196v-41q0 -136 73.5 -229.5t165.5 -93.5h17q92 0 159 85t67 199z" />
    <glyph glyph-name="seven" unicode="7" horiz-adv-x="1127" 
d="M134 1333q0 53 17.5 68.5t74.5 15.5h67l167 -5l174 3q266 0 321.5 -9.5t55.5 -46.5q0 -74 -87 -240q-284 -544 -421 -946q-51 -151 -54 -156q-18 -35 -65 -35h-21q-68 0 -68 48q0 86 115 358.5t252 546.5t137 286q0 41 -232 41l-215 -4q-141 0 -179.5 11t-38.5 64z" />
    <glyph glyph-name="eight" unicode="8" horiz-adv-x="1142" 
d="M949 1114q0 -97 -39 -165.5t-64.5 -93t-52.5 -47.5t-27 -26.5t66 -60.5q156 -135 156 -310v-23q0 -166 -118.5 -284.5t-304.5 -118.5t-300 110q-53 51 -82.5 123.5t-29.5 145.5v22q0 168 144 312q67 67 67 68q0 8 -19 24l-17 13q-135 107 -135 296q0 72 33.5 143
t91.5 121q107 93 268 93t262 -98t101 -244zM812 1074v20q0 80 -68.5 136t-163.5 56h-17l-8 -1q-97 0 -159.5 -56t-62.5 -131v-7q0 -77 70 -141q95 -86 199 -86q62 0 136 66.5t74 143.5zM596 143q103 0 176 67t73 152v8q0 112 -99 203t-218 91h-9l-8 -1q-62 0 -138.5 -76.5
t-76.5 -171.5v-34q0 -93 78 -164.5t166 -71.5l18 -2h38z" />
    <glyph glyph-name="nine" unicode="9" 
d="M222 118q0 42 106 42q203 0 315 103q72 65 107.5 148t35.5 142t-48 59q-13 0 -50.5 -14t-61.5 -20.5t-87 -6.5t-141 32q-161 66 -228 241q-34 87 -34 172v25q0 173 104 283t266 111q226 0 369 -172q69 -82 107 -201t38 -247v-52q0 -117 -42 -255q-88 -285 -307 -401
q-118 -63 -228 -63h-43q-114 0 -155 36q-23 20 -23 38zM321 1017v-41q0 -137 77 -235q56 -71 145 -71h26q105 0 168 74.5t63 170.5l2 20v51q0 139 -73.5 232.5t-163.5 93.5h-18q-92 0 -159 -85t-67 -210z" />
    <glyph glyph-name="colon" unicode=":" horiz-adv-x="577" 
d="M194 957q0 57 53 57q14 4 18 4l23 2h16l4 -1l23 -2q20 -5 25 -5q42 0 42 -62q2 -8 2 -12l2 -21v-35l-2 -20l-4 -25q0 -53 -52 -53q-14 -4 -18 -4l-23 -2h-16q-50 0 -71.5 14.5t-21.5 52.5l-2 8l-3 33v34l1 4l3 25q1 4 1 8zM189 157l7 40q0 48 61 48l8 2l26 2h4l4 -1
l34 -3q4 -1 7 -1q57 0 57 -66q2 -8 2 -12l2 -17v-43l-1 -4l-3 -24q-1 -4 -1 -9q0 -59 -63 -59l-23 -3h-31l-37 6q-47 0 -47 53l-3 12l-4 41v21l1 4v13z" />
    <glyph glyph-name="semicolon" unicode=";" horiz-adv-x="594" 
d="M203 924l4 33q0 59 61 59q6 2 11 2l15 2h31l30 -4q56 0 56 -66q2 -8 2 -12l2 -21v-34l-7 -49q0 -51 -55 -51l-34 -5h-24l-30 4q-35 0 -49 21t-14 79v38zM412 114l-7 -81q0 -94 -77 -196.5t-124 -102.5h-6q-24 0 -24 34v14q0 6 24 36q66 80 66 160q0 26 -19 42.5t-27.5 38
t-8.5 84t16 85.5t69 23h26q12 -2 19 -2q70 0 70 -57l2 -14l1 -28v-36z" />
    <glyph glyph-name="less" unicode="&#x3c;" horiz-adv-x="1186" 
d="M1043 183v-18q0 -45 -24 -45q-57 0 -801 425q-90 51 -90 91q0 57 59 91q18 10 183 93l143 72l36 17q35 18 167 84t205 106.5t92 40.5q30 0 30 -37v-18q0 -61 -82 -115t-359 -192.5t-277 -146.5q0 -3 297 -159.5t311 -165.5q110 -68 110 -123z" />
    <glyph glyph-name="equal" unicode="=" horiz-adv-x="1205" 
d="M1027 931q69 0 69 -31v-60q0 -39 -50 -39l-22 -1h-55l-33 -1h-593l-34 -1h-123q-69 0 -69 31v70q0 32 183 32h179l11 -1l89 1h448zM608 546h403q85 0 85 -47v-30q0 -42 -19.5 -49t-250.5 -7h-636q-74 0 -74 48v29q0 47 32 51.5t460 4.5z" />
    <glyph glyph-name="greater" unicode="&#x3e;" horiz-adv-x="1186" 
d="M145 203q0 50 115.5 120t363 187t247.5 128t-282.5 156.5t-361.5 195t-79 108t18.5 58.5t169.5 -84.5t351.5 -190t304.5 -169.5q63 -39 63 -88t-86 -93q-773 -397 -803 -397q-21 0 -21 50v19z" />
    <glyph glyph-name="question" unicode="?" horiz-adv-x="990" 
d="M159 1121q-47 0 -47 59.5t32 105.5t100 90q112 72 239 72h20q146 0 253.5 -91.5t107.5 -239.5q0 -184 -179 -371q-91 -95 -115 -132.5t-30.5 -111t-12.5 -84.5q-12 -24 -50 -24h-18q-42 0 -58 41q-9 25 -9 97q0 138 135 281q79 85 116.5 150t37.5 142.5t-52 136.5
t-130.5 59t-125 -25.5t-95.5 -90t-119 -64.5zM407 1q-41 0 -41 42q-3 10 -3 15l-4 31v8l-1 12v9l1 4v16l3 23q3 10 3 15q0 41 45 41q14 4 17 4l22 2h21q81 0 81 -51l4 -19l2 -24v-44l-6 -43q0 -41 -45 -41q-14 -4 -17 -4l-21 -2h-19l-14 2h-7q-12 4 -21 4z" />
    <glyph glyph-name="at" unicode="@" horiz-adv-x="1701" 
d="M991 908h7l38 8l37 22l35 10q65 0 65 -72l-4 -49l-11 -102q-16 -150 -16 -219t39 -99l32 -14q87 0 163 109.5t76 254.5q0 244 -153 395q-155 152 -413 152q-126 0 -243 -52q-172 -76 -282.5 -242t-110.5 -391q0 -129 44.5 -257.5t136.5 -220.5t206 -140t246.5 -48
t262.5 47q37 14 99.5 43.5t91.5 29.5t29 -21l-17 -29q-48 -55 -191 -108t-269 -53h-59q-133 0 -273 64q-256 117 -364 377q-61 147 -61 307q0 362 236 597q218 215 550 215q258 0 443 -164q204 -185 204 -483q0 -90 -28 -193.5t-88 -181.5q-117 -152 -273 -152q-52 0 -89 28
l-51 57l-32 -9l-86 -47q-72 -33 -138 -33q-127 0 -202 110q-55 81 -55 201q0 162 96 277.5t213 115.5l46 -8l44 -17q1 -1 2 -1h-8q-102 0 -183 -105q-106 -138 -106 -282v-37q0 -83 41 -133.5t95 -50.5h6l7 1q84 0 170 143t86 282l4 44v34q0 61 -45 90z" />
    <glyph glyph-name="A" unicode="A" horiz-adv-x="1301" 
d="M1201 80q0 -52 -92 -52q-46 0 -83 66.5t-78 175.5t-59 124q-31 26 -257 26h-47l-23 -1q-23 -1 -82 -1t-82.5 -19.5t-69.5 -144.5t-79.5 -177t-91.5 -52t-58 29v18q0 98 434 1247q33 86 53 109t69 23t70.5 -23.5t45.5 -88.5q185 -490 399 -1146q31 -95 31 -113zM476 561
h54l8 1l104 1q194 0 194 24v6q0 14 -55.5 181t-94 297.5t-43 130.5t-20.5 -55t-26.5 -85.5t-17 -54.5t-25.5 -80.5t-32 -103t-45.5 -139.5t-32.5 -100l1 -6v-6q0 -11 31 -11z" />
    <glyph glyph-name="B" unicode="B" horiz-adv-x="1234" 
d="M204 1161q0 238 16 253q26 25 275 25l87 2q218 0 324 -86.5t106 -251t-97 -259.5q-70 -68 -70 -77q0 -5 35 -23q208 -110 208 -341q0 -103 -42.5 -182t-104.5 -125q-115 -86 -343 -86h-85l-22 1h-21q-225 0 -250 37q-11 17 -11 261l-3 163l-2 46q-2 46 -2 69l-5 114
l-2 22v23l7 207l2 93v115zM413 1260q-49 0 -58 -33q-5 -18 -5 -169v-31q0 -139 5 -151q10 -24 62 -24h71l9 1l92 3q9 1 18 1q104 0 185 56t81 148v25q0 84 -76 131t-214 47h-84l-9 -1l-35 -1h-17q-18 -2 -25 -2zM529 662h-63q-84 0 -100 -12t-16 -87v-242q0 -104 12 -120.5
t91 -16.5h134l11 1l32 1q11 1 21 1q128 0 208.5 63.5t80.5 145.5v29q0 120 -118 187q-89 50 -293 50z" />
    <glyph glyph-name="C" unicode="C" horiz-adv-x="1339" 
d="M1222 1197q0 -67 -73 -67q-14 0 -83 50.5t-144 82.5q-74 32 -180 32q-202 0 -322 -166t-120 -435q0 -120 34 -223q70 -209 231 -286q77 -37 170 -37q160 0 310 104q106 73 136 73q52 0 52 -62q0 -32 -34.5 -78.5t-123.5 -95.5q-168 -92 -329 -92h-33q-126 0 -240 53
q-230 107 -318 372q-44 132 -44 263v71q0 126 46.5 258t129.5 227.5t198.5 148t238.5 52.5h33q149 0 281 -70q184 -97 184 -175z" />
    <glyph glyph-name="D" unicode="D" horiz-adv-x="1380" 
d="M212 1370q0 46 46.5 56.5t243.5 10.5l85 1q164 0 269.5 -37t189.5 -124t135.5 -218.5t51.5 -290.5v-51q0 -160 -53 -303t-148 -241.5t-209.5 -133.5t-283.5 -35h-42l-21 1h-41q-152 0 -194 18q-29 13 -29 56v21l5 135l2 46l4 182v46l1 69v345l-1 68l-9 292l-2 44v43z
M607 1287h-62q-136 0 -148 -40q-2 -7 -2 -61l2 -64v-33l2 -65v-98l1 -33v-298l-1 -33v-33l-1 -33v-32l-1 -17v-32l-3 -99v-32l-2 -64q0 -60 125 -60h76q208 0 332 156q58 74 89 180t31 207v75v6q0 106 -35 203q-106 300 -403 300z" />
    <glyph glyph-name="E" unicode="E" horiz-adv-x="1138" 
d="M992 1360q0 -44 -61 -55t-275 -11t-251 -47t-37 -292q0 -69 108 -89q16 -3 191 -13.5t195 -18.5q32 -12 32 -69.5t-31.5 -69t-220 -25.5t-229.5 -36q-61 -32 -61 -112q0 -292 50 -342q28 -28 221 -28l70 -2q35 -1 133 -1t144.5 -12t46.5 -57t-46 -60q-28 -9 -244 -9h-107
q-262 0 -388 42q-55 18 -55 84v33l16 336q0 4 7 120t7 187l-27 470q0 90 54 106q146 43 601 43l36 1q121 0 121 -73z" />
    <glyph glyph-name="F" unicode="F" horiz-adv-x="1067" 
d="M274.5 43q-51.5 0 -68.5 10.5t-17 38t7 151.5t7 217t-15.5 367t-15.5 385v82q0 48 14.5 74t75 44t424.5 18l170 2h56q81 0 81 -53.5t-31 -63.5q-71 -23 -307 -23t-268 -26t-32 -271q0 -125 51 -147q16 -7 170.5 -15.5t210.5 -22.5q76 -19 76 -83q0 -44 -46 -61
q-15 -5 -192.5 -22.5t-212.5 -40.5q-53 -34 -53 -224l-2 -99q0 -139 -15.5 -188t-67 -49z" />
    <glyph glyph-name="G" unicode="G" horiz-adv-x="1421" 
d="M879 656q0 61 220 61q98 0 139.5 -34t41.5 -143q0 -204 -28 -338q-11 -50 -40 -75t-106.5 -43.5t-80.5 -19.5q-172 -65 -263 -65h-40q-269 0 -445 207q-75 88 -119 215t-44 276v43q0 144 48 272q103 277 337 379q117 51 229 51h41q151 0 276 -60.5t160 -104t35 -62.5
q0 -72 -65 -72q-20 0 -98.5 48t-146.5 72.5t-170 24.5q-204 0 -330 -154q-125 -154 -125 -415q0 -262 131 -420q193 -139 333 -157q119 0 215 73t96 193q0 53 -30 91.5t-100.5 71t-70.5 85.5z" />
    <glyph glyph-name="H" unicode="H" horiz-adv-x="1365" 
d="M1210 179q0 -108 -9.5 -128t-41.5 -20h-31q-73 0 -84 57q-20 100 -20 394q0 171 -35 190q-70 38 -294.5 38t-270.5 -36q-29 -23 -29 -265t-33 -314q-18 -40 -95.5 -40t-86.5 67q-15 110 -15 585l1 38v189q0 38 -3 110l-2 35q-3 53 -3 70v66l1 33q0 105 7 126
q12 36 76.5 36t82.5 -49.5t18 -279.5t14 -250q34 -50 286 -50t301 40q29 23 29 236t20.5 276t98 63t89.5 -51q21 -93 21 -439v-514l8 -179v-34z" />
    <glyph glyph-name="I" unicode="I" horiz-adv-x="597" 
d="M177 1269v34q0 93 37 124q14 12 87 12h32q51 0 64 -19q26 -39 26 -115v-17q0 -26 -17 -108.5t-17 -156.5v-179l-1 -35v-335l1 -17v-35q0 -68 16.5 -150.5t16.5 -155t-35 -101.5q-14 -12 -87 -12h-32q-50 0 -64 20q-27 39 -27 114v18q0 16 16.5 108t16.5 199v538
q0 100 -16.5 168.5t-16.5 100.5z" />
    <glyph glyph-name="J" unicode="J" horiz-adv-x="919" 
d="M360 159q120 0 180 172q30 85 30 338v9q0 261 -8 322t-24 147t-16 165t26.5 102t91 23t75.5 -16q43 -61 43 -240v-42l-4 -85q-4 -86 -4 -108l-2 -110v-112q0 -426 -50 -535t-134.5 -157t-180.5 -48h-21q-101 0 -196 50q-120 63 -120 133v18q0 60 60 60q41 0 117 -43
t137 -43z" />
    <glyph glyph-name="K" unicode="K" horiz-adv-x="1268" 
d="M395 830q52 0 339 351q111 135 139 163q75 73 154 73q36 0 36 -21q0 -5 -221 -274t-221 -310.5t415 -614.5q15 -21 70 -86t55 -82q0 -11 -82.5 -11t-138.5 56q-18 18 -205.5 287t-238.5 269q-60 0 -82.5 -64.5t-22.5 -272t-12 -244t-66 -36.5t-74 16.5t-28 56.5
q-28 138 -28 688v36q0 484 30 574q16 47 97 47q50 0 66 -33q9 -18 9 -191l-10 -324q0 -53 20 -53z" />
    <glyph glyph-name="L" unicode="L" horiz-adv-x="1043" 
d="M608 11q-257 0 -332.5 11.5t-89.5 37.5t-15 434v714l-1 68v46l-2 43v21q0 53 52 53h21q60 0 77.5 -10.5t24.5 -57t7 -593.5t18 -574q33 -49 290.5 -49t294.5 -15t37 -74t-31 -59h-40l-153 5l-67 -1h-91z" />
    <glyph glyph-name="M" unicode="M" horiz-adv-x="1638" 
d="M213 55q-68 0 -68 88v45q0 53 9 227.5t22 640.5l5 209l5 50q14 83 108 83q82 0 186 -214q44 -88 173 -397t138 -328l21 -36q25 0 178 362.5t196 436.5q100 173 165 173q89 0 102 -93l3 -50l2 -51l1 -52q5 -178 35 -927l1 -46v-44q0 -49 -18.5 -67.5t-54 -18.5t-56.5 31
q-20 31 -35 129.5t-25.5 474t-34 375.5t-182.5 -391.5t-194 -460t-102 -68.5q-39 0 -86 104l-40 96q-56 136 -80 192l-59 144q-155 372 -174 372q-27 0 -41 -374.5t-26 -458.5q-22 -156 -74 -156z" />
    <glyph glyph-name="N" unicode="N" horiz-adv-x="1384" 
d="M155 69q0 25 2 78l5 122l-1 84v339l1 43v85q0 534 3 546q12 46 71 46q83 0 155 -94q44 -57 349 -511.5t319 -454.5t14 417t12.5 534t64.5 117h35q49 0 49 -63v-38l-6 -79l-2 -82q-1 -42 -1 -148v-276l-1 -127q0 -459 -4 -519t-46 -60q-94 0 -159 79.5t-368.5 541.5
t-320.5 462q-11 0 -11 -465t-16.5 -547.5t-82.5 -82.5q-61 0 -61 53z" />
    <glyph glyph-name="O" unicode="O" horiz-adv-x="1485" 
d="M176 688v73q0 151 54 293q54 144 130 232q159 182 393 182h21q245 0 400 -199q75 -96 118 -231.5t43 -281.5v-48v-6q0 -145 -45 -286q-89 -283 -314 -392q-97 -47 -216 -47q-256 0 -408 181q-88 105 -132 244t-44 286zM739 129h30q165 0 272 168q106 168 106 425v19
q0 267 -115 428q-49 68 -116.5 108.5t-143.5 40.5h-15q-174 0 -284 -163q-46 -68 -78 -177.5t-32 -215.5v-76v-7q0 -110 29 -211q60 -211 195 -293q77 -46 152 -46z" />
    <glyph glyph-name="P" unicode="P" horiz-adv-x="1162" 
d="M656 1430h43q179 0 280 -110q84 -90 84 -224q0 -253 -199 -392q-90 -63 -231 -83q-238 -34 -249 -45q-36 -36 -36 -254.5t-11.5 -264t-89.5 -45.5h-19q-61 0 -61 59v20l1 21v416l-1 87l1 22v43l1 21q1 21 1 43q0 551 48 635q8 14 44 21q159 30 394 30zM588 1273h-60
q-138 0 -158 -33q-12 -20 -12 -146v-166l-1 -35v-36q0 -72 16 -86.5t89 -14.5h57q177 0 274 71t97 197v29q0 97 -78.5 158.5t-223.5 61.5z" />
    <glyph glyph-name="Q" unicode="Q" horiz-adv-x="1493" 
d="M175 739v57q0 130 39 256q39 124 112 214q155 190 403 190t406 -178q99 -111 148.5 -256.5t49.5 -295.5v-28v-4q0 -297 -149 -499q-62 -85 -63 -98q0 -41 90.5 -123.5t90.5 -103.5q0 -10 -25 -10l-24 -2q-60 10 -81 10l-45 -2l-45 1q-158 0 -355 78t-315 189.5
t-177.5 273t-59.5 331.5zM777 1310h-33q-75 0 -146 -45q-143 -91 -200 -288q-34 -119 -34 -226v-41l1 -20q0 -131 33.5 -235t81.5 -167t121.5 -102.5t145.5 -39.5h15q64 0 91 35q9 12 15 67q11 104 138 125q41 6 72 53q68 102 68 291v59q0 110 -30 210q-58 198 -187 280
q-70 44 -152 44z" />
    <glyph glyph-name="R" unicode="R" horiz-adv-x="1246" 
d="M453 1442h165q307 0 392 -204q33 -79 33 -180t-43.5 -181.5t-117.5 -139t-74 -87.5q0 -3 145 -288l78 -157q17 -34 51.5 -94.5t34.5 -66.5q0 -23 -72.5 -23t-114.5 56q-2 3 -107.5 202t-176.5 268t-173 69q-60 0 -73.5 -28t-13.5 -136l1 -30q1 -30 1 -67v-81
q0 -165 -12 -212t-61 -47q-90 0 -101 43q-6 24 -6 206l-8 380l-3 87q0 10 4 87l8 351q0 219 23.5 246t220.5 27zM613 1270h-111q-118 0 -137 -32q-12 -21 -12 -214v-77q0 -111 5 -123q13 -30 53 -30h84l9 1l70 3q10 1 20 1q143 0 225 69.5t82 170.5v19q0 95 -76 153.5
t-212 58.5z" />
    <glyph glyph-name="S" unicode="S" horiz-adv-x="1138" 
d="M159 317q37 0 111.5 -63.5t146 -90t177 -26.5t180.5 64t75 170.5t-100 183.5q-45 35 -239.5 124.5t-260 152t-88.5 126.5t-23 142q0 150 121 250t321 100q144 0 274.5 -75t130.5 -154q0 -62 -68 -62q-31 0 -92 45.5t-118 69t-155.5 23.5t-168 -55t-69.5 -128
q0 -109 94 -182q55 -43 253 -132.5t283.5 -181.5t85.5 -226v-34q0 -74 -40.5 -151.5t-109.5 -127.5q-126 -92 -302 -92t-307 74q-87 49 -131 93t-44 97q0 66 63 66z" />
    <glyph glyph-name="T" unicode="T" horiz-adv-x="1142" 
d="M105 1381q0 38 58 47t426 9l242 1h23q108 0 148 -13t40 -47v-21q0 -48 -33 -61q-4 -2 -158 -17q-155 -15 -173 -57t-18 -594t-4 -581q-6 -45 -74 -45h-22q-68 0 -73 46t-5 592t-20 586t-165 50q-144 10 -168 22t-24 63v20z" />
    <glyph glyph-name="U" unicode="U" horiz-adv-x="1342" 
d="M1191 866q0 -346 -12 -450.5t-64.5 -202.5t-165.5 -163.5t-252 -65.5h-38q-151 0 -260 59t-167.5 162t-71.5 265q-4 49 -4 280v284l1 104q0 80 -1 102l-6 132q0 41 11 48.5t67.5 7.5t73.5 -14.5t24.5 -60t7.5 -492.5t49.5 -549.5t126 -144t181 -41.5t182 58t119 165
t41.5 525.5t18 490.5q16 62 103 62q46 0 46 -50l-8 -232l-1 -70v-209z" />
    <glyph glyph-name="V" unicode="V" horiz-adv-x="1241" 
d="M95 1422q100 0 140 -78.5t217 -566.5t180.5 -488t183.5 489.5t203.5 541.5t49 76.5t78 24.5t52.5 -33q0 -18 -87 -241.5t-235 -654.5t-189 -468q-23 -21 -77 -21t-87.5 74t-94 245.5t-108.5 302.5l-62 172q-25 71 -30 86l-105 285q-80 200 -80 231q0 23 51 23z" />
    <glyph glyph-name="W" unicode="W" horiz-adv-x="1776" 
d="M118 1409q78 0 119 -96q30 -70 144 -506t135 -436t150 454t150 497q28 58 106 58q43 0 77 -107q8 -25 134 -469t144.5 -444t135.5 441.5t147 511.5q43 98 115 98q43 0 43 -34q0 -14 -70 -273l-55 -204q-45 -173 -66 -247.5t-45 -163t-42 -154.5l-13 -51q-18 -71 -27 -102
l-15 -50q-35 -97 -119 -97q-49 0 -104.5 151t-140 441t-99.5 340l-15 49l-16 38q-11 0 -136 -411t-141 -453q-58 -152 -117 -152q-79 0 -107 90q-14 43 -35.5 127.5t-36.5 139t-29 109.5t-91.5 340.5t-108.5 388t-31 118.5q0 58 60 58z" />
    <glyph glyph-name="X" unicode="X" horiz-adv-x="1229" 
d="M141 1403q0 35 80.5 35t125.5 -58q22 -29 146 -246.5t131 -217.5t134.5 221t160.5 261.5t99.5 40.5t66.5 -14q0 -31 -174.5 -323.5t-174.5 -361.5q0 -25 191.5 -352t191.5 -367q0 -18 -43 -18h-30q-90 0 -127.5 49.5t-170 286.5t-145.5 237q-5 0 -154.5 -255t-165.5 -273
q-38 -43 -132 -43q-40 0 -40 16q0 24 194 354.5t194 360.5t-179 340.5t-179 326.5z" />
    <glyph glyph-name="Y" unicode="Y" horiz-adv-x="1199" 
d="M155 1438h22q75 0 123.5 -72.5t172.5 -320.5t134 -248t142.5 259t164.5 305q52 75 115.5 75t63.5 -24v-16q0 -12 -160.5 -312.5t-201.5 -390.5t-41 -193l-2 -53v-52l-1 -53v-160q0 -122 -7.5 -151t-45.5 -29h-71q-41 0 -48 20.5t-7 287.5t-18.5 322.5t-202.5 400.5
t-184 375t52 30z" />
    <glyph glyph-name="Z" unicode="Z" horiz-adv-x="1184" 
d="M92 70v29q0 54 370.5 591t370.5 552q0 31 -34.5 39.5t-304.5 8.5t-324 14t-54 82q0 48 46 48h31l33 -1l66 -3q33 -1 102 -1l244 1q355 0 378 -4q63 -11 63 -64.5t-43.5 -127t-370.5 -539t-327 -500.5q0 -42 332 -42t383 -14t51 -73.5t-44 -59.5h-31l-237 6l-244 -1
q-334 0 -378 5q-78 9 -78 54z" />
    <glyph glyph-name="bracketleft" unicode="[" horiz-adv-x="695" 
d="M534 1507q72 0 72 -41q0 -52 -27 -67q-10 -6 -98.5 -18t-106.5 -58t-18 -722t19 -723t126 -61.5t107 -59.5v-22q0 -42 -50 -42h-89l-71 3q-48 2 -89 2t-66.5 19t-32.5 73t-7 486v644l-1 75v349q0 93 24.5 124.5t95.5 31.5l190 7h22z" />
    <glyph glyph-name="backslash" unicode="\" horiz-adv-x="830" 
d="M70 1492h33q57 0 93 -83q152 -354 230.5 -565.5t219.5 -564.5t141 -376t-71 -23q-43 0 -91 108q-188 427 -526 1336q-52 140 -52 147q0 21 23 21z" />
    <glyph glyph-name="bracketright" unicode="]" horiz-adv-x="691" 
d="M205 -308h-62q-45 0 -45 39q0 46 24.5 60t86 21t89 20t38.5 59t11 714.5t-16.5 715t-74.5 58.5q-26 6 -74 11t-57 9q-30 13 -30 64q0 43 64 43h42q143 0 200.5 -11t71.5 -62t14 -831l1 -74v-598q0 -171 -39 -204.5t-244 -33.5z" />
    <glyph glyph-name="asciicircum" unicode="^" horiz-adv-x="1090" 
d="M543.5 1454q48.5 0 85.5 -53t139 -244t164 -293.5t62 -114t-31 -11.5h-16q-70 0 -124 71q-35 46 -153 260t-128 214t-119 -204.5t-161 -272.5t-117 -68h-15q-30 0 -30 11v9q0 45 349 620q46 76 94.5 76z" />
    <glyph glyph-name="underscore" unicode="_" horiz-adv-x="1082" 
d="M1011 -169q62 0 62 -32v-54q0 -27 -539 -27h-283l-35 -1h-106q-97 0 -97 33v53q0 27 539 27l94 1h365z" />
    <glyph glyph-name="grave" unicode="`" horiz-adv-x="751" 
d="M247 1501h16q65 0 98 -38q16 -18 43 -72.5t71.5 -111.5t44.5 -90v-4q0 -19 -46 -19h-5q-89 0 -240 202q-70 94 -70 108v4q0 21 88 21z" />
    <glyph glyph-name="a" unicode="a" horiz-adv-x="1063" 
d="M894 84q0 -56 -23 -68t-74 -12t-74.5 43t-39.5 43q-9 0 -41.5 -24t-88.5 -53.5t-140 -29.5q-134 0 -206 69.5t-72 185.5q0 151 93 235.5t317 143.5q110 29 124 38q49 31 49 101.5t-72 119.5q-50 34 -137.5 34t-169.5 -59t-142 -59q-50 0 -50 66.5t116.5 126t253.5 59.5
q189 0 285 -90q50 -47 68 -102t18 -147l-23 -438q0 -50 14.5 -111t14.5 -72zM721 457q0 62 -39 62q-149 0 -302 -89q-108 -63 -108 -160v-20q0 -57 46.5 -89.5t106.5 -32.5h8q112 0 196.5 69t84.5 157q3 21 3 28l3 29v13l1 20v13z" />
    <glyph glyph-name="b" unicode="b" horiz-adv-x="1138" 
d="M152 1393q0 58 19.5 83t73.5 25h21q37 0 48 -36t11 -145l-4 -185q0 -165 30 -165q3 0 41.5 22t86.5 40t133.5 18t163.5 -43q236 -130 236 -516v-25q0 -95 -35 -185q-68 -175 -195 -244q-67 -36 -144 -36h-22q-90 0 -195 63q-50 28 -58.5 28t-39.5 -20t-61 -20
q-52 0 -67 66q-8 35 -8 210l-4 190q0 12 -15 349l-1 23l-3 46q-5 113 -5 137l-2 45q-1 23 -1 46l-1 23q-1 23 -1 45l-2 114v47zM353 558v-58q0 -204 46 -275q60 -93 172 -93h20q107 0 178 110t71 271v49q0 153 -70 254.5t-181 101.5l-9 -1q-106 0 -184 -120
q-38 -59 -39 -182l-2 -23q-2 -23 -2 -34z" />
    <glyph glyph-name="c" unicode="c" horiz-adv-x="1034" 
d="M580 1050q136 0 242 -57.5t106 -128t-70 -70.5q-25 0 -116.5 59t-180.5 59q-129 0 -207.5 -104.5t-78.5 -278t83 -280t220 -106.5q89 0 167 45q136 79 151 79q46 0 46 -41v-19q0 -73 -124 -141.5t-249 -68.5h-24q-95 0 -181 40q-179 83 -239 293q-25 87 -25 199
q0 219 131 372q62 72 149.5 110.5t175.5 38.5h24z" />
    <glyph glyph-name="d" unicode="d" 
d="M953 64q-16 -30 -67.5 -30t-76.5 53q-13 26 -19 26q-6 -1 -38 -25q-120 -95 -231 -95h-2h-22q-141 0 -241 122q-48 59 -79.5 142.5t-31.5 166.5v76q1 246 137 412q66 80 146 111.5t163 31.5t143.5 -25t67.5 -25q28 0 28 204t9 232q17 51 79 51t75.5 -21t13.5 -88v-117
l-1 -23l-1 -68l-2 -90l-9 -203q-3 -46 -11 -234t-8 -191l-1 -24q-1 -24 -1 -47l-1 -24q-1 -24 -1 -48l-2 -96q0 -124 -16 -154zM550 137h30q46 0 100 33.5t77 75.5q50 90 50 304l1 23q0 178 -47 255q-62 101 -168 101h-29q-102 0 -175 -106.5t-73 -253.5v-74
q0 -149 67.5 -253.5t166.5 -104.5z" />
    <glyph glyph-name="e" unicode="e" horiz-adv-x="1087" 
d="M968 223q0 -73 -105 -137q-136 -83 -284 -83h-24q-183 0 -310 127q-63 63 -101.5 160.5t-38.5 206.5q0 236 149 401q63 70 156 109.5t191 39.5h23q138 0 234 -86q51 -46 83.5 -118.5t32.5 -142.5v-23q0 -92 -80 -115q-47 -13 -266 -27.5t-246 -20.5q-94 -22 -94 -69
q0 -132 87 -213.5t194.5 -81.5t221.5 60t141 60q36 0 36 -47zM350 646h34l6 1l162 5q251 0 251 28v13l-1 7q0 89 -71.5 153t-154.5 64h-37q-84 0 -166 -74t-82 -169v-12q0 -16 59 -16z" />
    <glyph glyph-name="f" unicode="f" horiz-adv-x="711" 
d="M591 1505q124 0 124 -71q0 -78 -78 -78l-78 4q-151 0 -151 -219q0 -49 89 -102t89 -105q0 -20 -62 -47t-86 -87q-37 -94 -37 -406t-8 -345q-11 -44 -88 -44h-20q-51 0 -51 130l-1 23q-1 23 -1 46l-1 70v165q0 311 -14 362t-60 87.5t-46 51.5q0 44 51 93t63 78.5t18 60.5
l6 44q29 198 165 261q61 28 132 28h45z" />
    <glyph glyph-name="g" unicode="g" horiz-adv-x="1133" 
d="M992 38q0 -189 -111 -306q-57 -60 -139.5 -93.5t-173.5 -33.5h-62q-110 0 -224.5 63t-114.5 134q0 47 48 47q18 0 127 -50q108 -50 196 -50q155 0 233 104q60 81 60 237q0 33 -19 33q-3 0 -35 -20q-93 -58 -197 -58q-11 -8 -26 -8q-96 0 -372 330q-33 113 -33 223v6v31
q0 177 108 313.5t272 136.5q90 0 154 -34q24 -13 64 -43t54 -30l30 30q19 18 61 18t55.5 -25t13.5 -143l-1 -58l-1 -29l-2 -117q0 -142 17.5 -331t17.5 -277zM803 521v81q0 228 -129 301q-50 28 -87 28h-29q-99 0 -170 -103t-71 -251v-47q2 -24 2 -35q0 -125 68.5 -218.5
t149.5 -93.5h18q111 0 179.5 100t68.5 238z" />
    <glyph glyph-name="h" unicode="h" horiz-adv-x="1113" 
d="M848 18q-52 0 -64.5 57.5t-12.5 375.5t-22 367q-36 81 -129 81q-59 0 -109 -30q-84 -50 -121.5 -126.5t-37.5 -334t-14 -343.5q-8 -50 -54 -50q-88 0 -98 56q-2 11 -2 339.5t-14.5 633t-14.5 345.5t16.5 60.5t73.5 19.5t67 -36q15 -52 15 -212l1 -28q1 -28 1 -56l-1 -87
q0 -74 26 -74q6 0 36 16q105 58 213 59q213 0 289 -170q46 -104 46 -504v-64l-1 -96l5 -150q0 -49 -94 -49z" />
    <glyph glyph-name="i" unicode="i" horiz-adv-x="520" 
d="M167 1353v26l1 4l3 29q1 4 1 7q0 56 57 56l6 2l35 3h7l3 -1l24 -2q12 -3 16 -3q39 0 39 -50q2 -6 2 -10l2 -19v-29q0 -93 -65 -93l-24 -3h-34q-20 5 -30 5q-43 0 -43 78zM159 986q0 45 19.5 55.5t78.5 10.5h34q42 0 52 -72q4 -30 4 -214v-298l2 -74l2 -48q2 -24 2 -35
l4 -48l2 -74v-36q0 -95 -15 -125q-9 -18 -67 -18h-34q-52 0 -62.5 26.5t-10.5 90.5v82l2 24l3 73l2 24q1 12 1 36l1 25v252l-1 37v25l-3 72q-1 12 -1 24l-13 138l-2 24v23z" />
    <glyph glyph-name="j" unicode="j" horiz-adv-x="539" 
d="M185 1348v26l1 3v8l1 11l4 21q0 50 54 50l6 2l27 3h25l36 -6q37 0 37 -47l1 -4l1 -3l3 -29v-19l-1 -3v-8l-2 -14l-5 -28q0 -41 -42 -41q-15 -5 -23 -5l-18 -2h-31l-26 4q-48 0 -48 81zM263 1046q62 0 70 -10q35 -44 35 -527v-390q0 -294 -62 -400q-33 -56 -98.5 -94.5
t-139.5 -38.5h-18q-109 0 -109 62v16q0 44 30 61q13 7 67 13q108 11 139 111q23 74 23 480v74l-1 37v93l1 18v37l-2 55q-1 18 -1 36l-28 269q0 62 16 80t78 18z" />
    <glyph glyph-name="k" unicode="k" horiz-adv-x="1035" 
d="M428 494q-64 0 -64 -144.5t-34 -236.5q-17 -47 -70 -47q-82 0 -92 56q-20 113 -20 857v353l-2 93l-1 29q0 48 75 48t85.5 -66.5t10.5 -433t26 -366.5q33 0 180.5 140t199.5 179t105 39t53 -20t-140.5 -164t-140.5 -205t191.5 -311.5t191.5 -257.5q0 -17 -81 -17t-123 41
t-184.5 237.5t-165.5 196.5z" />
    <glyph glyph-name="l" unicode="l" horiz-adv-x="537" 
d="M389 120v-31q0 -61 -11 -75t-86 -14h-15q-43 0 -59 15t-28 89t-12 428v537q0 96 -10 204t-10 153t14.5 61.5t85.5 16.5h15q42 0 52 -17.5t15.5 -75.5t5.5 -529l1 -52v-139l3 -120v-34l6 -168q0 -29 16.5 -131t16.5 -118z" />
    <glyph glyph-name="m" unicode="m" horiz-adv-x="1649" 
d="M250 1008q41 0 61 -37q32 -60 36.5 -60t97 44t174.5 44q129 0 220 -84q55 -51 63.5 -51t67.5 51q124 107 270 107t211 -135.5t65 -524.5v-210q0 -79 -20.5 -100t-69.5 -21t-61 29.5t-12 329t-25 367.5t-66 97.5t-108.5 29.5t-116.5 -46.5t-71 -117.5t-35 -334.5
t-17 -282.5q-10 -43 -85 -43t-89 34q-32 75 -32 465q0 172 -29 241q-38 91 -130 91q-50 0 -110.5 -38.5t-97.5 -114.5t-37 -407l-1 -40l-2 -39q-1 -26 -1 -104t-15 -97t-64.5 -19t-64.5 31.5t-15 114.5v167q0 445 30 595q14 68 79 68z" />
    <glyph glyph-name="n" unicode="n" horiz-adv-x="1112" 
d="M139 336l8 246v105l2 80l1 27l1 53q0 126 16.5 147t69 21t63.5 -13.5t21.5 -56.5t23.5 -43q5 0 51 34q130 98 263 98h27q135 0 209 -98.5t74 -306.5l1 -27q1 -27 1 -55l2 -54l1 -81l8 -211v-98q0 -73 -53 -73h-24q-67 0 -80 48q-21 80 -21 360t-49 375.5t-165 95.5
q-63 0 -128.5 -38.5t-106 -111.5t-40.5 -353t-20 -337q-13 -38 -84.5 -38t-71.5 59v246z" />
    <glyph glyph-name="o" unicode="o" horiz-adv-x="1149" 
d="M1023 570v-53q0 -94 -29.5 -195.5t-88.5 -175.5q-127 -160 -322 -161h-16q-87 0 -167 37q-155 71 -224 266q-35 99 -35 216v18l1 18q0 215 116 368q61 80 144 121.5t164 41.5h48q170 0 295 -153q50 -61 82 -156.5t32 -191.5zM849 500v50q0 164 -76 271.5t-177 107.5h-32
q-97 0 -172.5 -107t-75.5 -254v-62q2 -24 2 -36q0 -144 81 -244t181 -100h11q107 0 182.5 107t75.5 267z" />
    <glyph glyph-name="p" unicode="p" horiz-adv-x="1145" 
d="M188 776q0 186 9 207q19 43 88 43q36 0 54.5 -45t31.5 -45q1 0 37 28q123 97 223 97h44q64 0 133 -40.5t116 -104.5q93 -126 93 -317v-52q-1 -109 -35 -213q-68 -204 -219 -284q-89 -47 -173.5 -47t-164.5 27.5t-85 27.5q-18 0 -18 -146l4 -155q0 -90 -17.5 -117t-73 -27
t-69 20.5t-13.5 85.5l1 24v69l2 68q1 23 1 45l4 111q0 7 4 67l4 91q8 180 8 183l4 93q3 70 3 94l2 47l2 94v71zM845 508v50q0 151 -67.5 255t-169.5 104h-10q-99 0 -170 -82t-71 -227l-2 -23l-1 -34v-82q0 -165 48 -239q61 -94 170 -94h19q107 0 180.5 106.5t73.5 265.5z
" />
    <glyph glyph-name="q" unicode="q" horiz-adv-x="1147" 
d="M926 -388h-21q-43 0 -54 31q-15 44 -15 239t-25 195q-2 0 -46.5 -23.5t-85 -39t-126.5 -15.5q-86 1 -165 41q-161 83 -222 297q-25 88 -25 197v26q0 120 27.5 200t85.5 153.5t130 110.5t142 37h22q98 0 223 -82q23 -15 31 -15t37 28t68 28t53 -45t14 -256l1 -71l2 -94
l1 -23q1 -24 1 -47l2 -47q1 -24 1 -46l4 -92q3 -69 3 -91l7 -181l2 -44q1 -22 1 -45l1 -22q5 -90 5 -133l2 -45l1 -68q0 -58 -82 -58zM809 522v35l-1 12v23q-2 24 -2 35q0 131 -54.5 215t-168.5 84h-20q-101 0 -175.5 -106t-74.5 -255v-62q0 -156 79 -271q63 -92 160 -92h18
l10 1q40 0 92 27.5t84 77.5q53 82 53 276z" />
    <glyph glyph-name="r" unicode="r" horiz-adv-x="759" 
d="M320 210l-2 -128q0 -44 -20.5 -60.5t-99.5 -16.5q-47 0 -47 46v389l1 17v69l-1 68v156q0 198 18 236.5t71.5 38.5t75 -19t33.5 -53.5t20 -34.5t37 29q94 94 185 94q117 0 117 -73v-14q0 -58 -23 -77q-10 -8 -99 -8t-139 -30t-89 -114t-39 -412v-51z" />
    <glyph glyph-name="s" unicode="s" horiz-adv-x="935" 
d="M490 1055q104 0 205 -50.5t101 -107.5t-63 -57q-17 0 -107.5 42t-165.5 42t-124 -35.5t-49 -97t69 -107.5q42 -28 185 -85t202 -110q90 -80 90 -205t-100.5 -209t-254.5 -84h-27q-124 0 -240.5 59.5t-116.5 123t57 63.5q20 0 120 -57.5t193 -57.5t147 42.5t54 112
t-75 120.5q-37 25 -175 80t-194 102q-96 80 -96 204.5t99 198t239 73.5h27z" />
    <glyph glyph-name="t" unicode="t" horiz-adv-x="716" 
d="M621 86v-17q0 -43 -31.5 -58.5t-112.5 -15.5t-134.5 35.5t-77.5 87.5q-40 85 -40 375t-18 345.5t-60 67.5q-63 17 -63 63t58.5 63.5t70 37.5t19.5 99t21 112q23 58 68 58h15q30 0 42.5 -25.5t19 -102t32.5 -119t101 -51.5t75 -63t-83 -67t-101 -53q-29 -65 -29 -327.5
t33.5 -320t98.5 -69.5q96 -17 96 -55z" />
    <glyph glyph-name="u" unicode="u" horiz-adv-x="1109" 
d="M973 778l-9 -292l1 -55v-81q0 -246 -7 -267q-15 -45 -113 -45q-27 0 -39 29q-24 59 -28 59q-12 0 -52 -31q-199 -97 -253 -97q-4 0 -7 1q-190 1 -278 165q-48 90 -48 426v54l-1 54q0 35 -1 52l-2 26l-3 51v123q0 81 43 81q104 0 118.5 -42t14.5 -351q0 -308 31 -380
q54 -124 190 -125q64 0 127 41t101.5 111.5t38.5 360t15.5 333.5t118.5 44q43 0 43 -128v-25l-1 -24v-68z" />
    <glyph glyph-name="v" unicode="v" horiz-adv-x="1003" 
d="M99 1032q89 0 134 -86q31 -58 151 -375t131 -317q5 0 127 322t135 344q58 112 118 112h20q46 0 46 -25q0 -17 -47 -125q-48 -108 -170 -430t-151 -384q-29 -63 -91 -63t-98 79q-22 48 -136 346t-170 430q-58 132 -58 155q0 17 59 17z" />
    <glyph glyph-name="w" unicode="w" horiz-adv-x="1476" 
d="M81 1025q96 0 128.5 -65t125.5 -365.5t102 -300.5q25 0 164 456q46 151 59 184q32 82 87.5 82t80.5 -54q7 -16 109 -343.5t126 -327.5q6 0 98 299.5t113 342.5q45 92 115 92q43 0 43 -17t-55.5 -185t-90.5 -282t-52.5 -168t-53 -168.5t-42.5 -128.5q-29 -56 -105 -56
q-32 0 -70.5 87.5t-129.5 357t-101 269.5l-97 -286q-90 -265 -115 -323q-45 -102 -104 -102t-91 79l-70 224q-19 63 -30.5 98t-56.5 180.5t-84 257.5t-39 137.5t36 25.5z" />
    <glyph glyph-name="x" unicode="x" horiz-adv-x="1010" 
d="M490 400q-4 0 -108 -167t-116 -181q-42 -50 -119 -50h-22q-32 0 -32 11v14q0 10 149 247q150 238 150 265t-136 243t-136 240t76 24t110 -34q32 -34 114 -176t98 -142q6 0 90 138t115 176q30 37 92 37h3q64 0 65 -14q-1 -22 -131 -225t-130 -254q0 -31 146 -264t147 -263
q0 -23 -70 -23h-23q-67 0 -98 38q-14 16 -120 188t-114 172z" />
    <glyph glyph-name="y" unicode="y" horiz-adv-x="1018" 
d="M421 73q0 83 -158 470t-158 438t55 51q77 0 128 -100q32 -62 129 -348.5t110 -286.5t126 327.5t121 343.5q34 71 90 71h3q53 0 54 -33q0 -34 -183 -562t-215 -593q-124 -250 -290 -250q-92 0 -92 35q0 54 27 82q8 8 49.5 26.5t49.5 22.5q55 29 89 79q65 94 65 227z" />
    <glyph glyph-name="z" unicode="z" horiz-adv-x="984" 
d="M436 11q-295 0 -315 4q-38 8 -38 39v22q0 48 284.5 421.5t284.5 385.5q0 24 -243 24t-280 20q-24 13 -24 76q0 40 57 40h24l180 -5h187q270 0 290 -3q48 -7 48 -57.5t-284.5 -423.5t-284.5 -395q0 -17 241.5 -17t293.5 -13.5t52 -82.5q0 -41 -55 -41h-24l-180 6h-214z
" />
    <glyph glyph-name="braceleft" unicode="{" horiz-adv-x="737" 
d="M102 601q0 45 68.5 70.5t97.5 80.5t29 213l-5 101q-2 51 -2 102q0 163 80 251t215 88h23q39 0 39 -26q0 -44 -16 -65t-76 -48t-86.5 -73.5t-26.5 -176.5l6 -201q0 -179 -92 -260q-17 -15 -48 -36t-31 -25.5t26 -21.5t56.5 -42t60.5 -88.5t30 -230.5q0 -1 -3 -77l-3 -75
q0 -119 28 -166t68 -68l41 -17q27 -11 36 -19q27 -24 27 -72q0 -38 -45 -38q-176 0 -255 119q-52 77 -52 281l6 201q0 100 -33 156t-107 84q-33 12 -44.5 23t-11.5 56z" />
    <glyph glyph-name="bar" unicode="|" horiz-adv-x="652" 
d="M348 -329h-53q-37 0 -37 102v1662q0 94 47 94h53q38 0 38 -103v-40l-1 -20v-199l-1 -60v-1063l1 -39v-100l1 -80q0 -111 -9 -132.5t-39 -21.5z" />
    <glyph glyph-name="braceright" unicode="}" horiz-adv-x="734" 
d="M631 592.5q0 -47.5 -67 -74t-97.5 -82t-30.5 -211.5l6 -177q0 -185 -80 -276t-226 -91q-38 0 -38 24q0 41 22 75q5 7 67 36.5t88 75.5t26 178l-4 100q-2 50 -2 132q0 172 129 258q46 32 46 36.5t-25 20t-57.5 42t-61.5 87.5t-29 201l5 200q0 106 -27 149.5t-66 64.5
q-6 3 -39 17t-39 19q-32 26 -32 86q0 24 38 24h22q65 0 127.5 -32t100.5 -85q57 -79 57 -277l-7 -202q0 -104 28 -156.5t84 -77.5q82 -37 82 -84.5z" />
    <glyph glyph-name="asciitilde" unicode="~" horiz-adv-x="1180" 
d="M1082 810v-12q0 -81 -84 -160t-182 -79h-12q-88 0 -226 86t-208 86q-72 0 -139 -75t-91 -75q-40 0 -40 41v12q0 85 87 163t179 78h12l13 -1q85 0 227 -86q140 -85 205 -85h1q64 1 126 75t82 74q50 0 50 -42z" />
    <glyph glyph-name="uni00A0" unicode="&#xa0;" horiz-adv-x="608" 
 />
    <glyph glyph-name="exclamdown" unicode="&#xa1;" horiz-adv-x="649" 
d="M220 1144q0 35 33 35l19 4l8 2l32 3h38l23 -2l23 -4l14 -2q22 0 22 -33l4 -28v-7l1 -10v-16l-1 -3v-7l-4 -22q-1 -3 -1 -6q0 -36 -40 -36l-12 -3l-32 -4h-9l-12 -1h-17l-4 1h-9l-16 2h-7l-23 4l-14 2q-17 0 -17 29l-2 6l-3 25v33l1 4v6l4 22q1 3 1 6zM309 801h28
q43 0 43 -90l2 -24l3 -99v-24l3 -73l1 -12l4 -122v-25l5 -145v-25l2 -36v-37l3 -86v-24l1 -38v-73l1 -47v-12q0 -46 -12.5 -57.5t-52.5 -11.5h-38q-41 0 -50.5 12.5t-9.5 62.5v72l1 13l1 49v37l3 86v24l5 121v24l2 37v24l4 85v25l5 122q1 12 1 25l2 61v25l3 73q2 24 2 35
q0 48 38 48z" />
    <glyph glyph-name="cent" unicode="&#xa2;" horiz-adv-x="1163" 
d="M956 271v-17q0 -58 -113.5 -119.5t-126.5 -80.5q-75 -113 -95 -113h-11q-24 0 -43 36q-44 81 -109 141q-121 111 -154 168q-80 137 -80 350q0 351 258 452l163 63q17 13 53 89t60 76t33 -29q40 -130 54 -142q109 -92 109 -147q0 -66 -62 -66q-29 0 -76.5 15.5t-72.5 15.5
q-46 0 -65 -85q-64 -279 -64 -505q0 -47 25 -80t66 -33t108.5 32t94.5 32q48 0 48 -53zM619 947v23q0 32 -21 32h-13q-68 0 -138 -108.5t-70 -250.5v-50l1 -9l1 -30l5 -47q0 -58 45 -148t87 -90h5q29 0 29 59l3 34v33l4 73q0 104 31 290t31 189z" />
    <glyph glyph-name="sterling" unicode="&#xa3;" horiz-adv-x="1168" 
d="M163 95q0 41 57.5 114t83.5 139t26 188q0 71 -46 102q-85 58 -85 87q0 9 36.5 96.5t54.5 219.5q34 245 205 334q87 46 184 46t207.5 -40t110.5 -92q0 -69 -56 -69q-21 0 -103.5 27.5t-139.5 27.5q-107 0 -172 -82t-65 -228q0 -68 30 -101q11 -12 146 -69q86 -36 86 -77
t-85.5 -71t-113.5 -77q-11 -18 -54 -171t-43 -172q0 -38 55 -51.5t252.5 -13.5t244.5 -15q61 -19 61 -78q0 -30 -36.5 -46t-171.5 -16h-65q-11 0 -130 10.5t-209 10.5l-194 -11q-71 0 -71 78z" />
    <glyph glyph-name="currency" unicode="&#xa4;" horiz-adv-x="1202" 
d="M403 1080q7 0 31 11.5t64 28t95 16.5t86 -13t67.5 -31t54 -18t65 57t63.5 57t49 -36.5t33 -54t-58 -79.5t-58 -81t25 -90.5t25 -149.5t-7 -105.5t-22.5 -77t-15.5 -71t55 -89.5t55 -80t-25 -40t-38.5 -28t-67 53.5t-76.5 53.5q-4 0 -44.5 -18.5t-69 -28.5t-80 -10
t-80 10.5t-68.5 30t-56.5 19.5t-65.5 -56.5t-63 -56.5t-47 35.5t-33 52.5t56.5 79t56.5 91q0 8 -14 50t-25 84t-11 111t21.5 151t21.5 88q0 26 -53 93t-53 71v16q0 7 26 34t38 27t65 -53t78 -53zM380 715v-40q0 -122 66.5 -200.5t148.5 -78.5h8l7 1q87 0 150.5 83t63.5 216
l-1 10q0 125 -64.5 207t-150.5 82h-15q-85 0 -149 -83t-64 -197z" />
    <glyph glyph-name="yen" unicode="&#xa5;" horiz-adv-x="1188" 
d="M800 843q0 -33 42.5 -69t42.5 -68.5t-79 -83t-79 -73.5q0 -39 92 -82t92 -55q0 -44 -56 -66l-26 -6l-54 -8q-40 -11 -66.5 -42t-31.5 -109l-2 -37l-1 -37q-2 -52 -7 -69q-12 -40 -71.5 -40t-71 22.5t-11.5 137t-44 148.5q-4 3 -128 38q-70 20 -70 57q0 27 98.5 64
t98.5 86q0 31 -85.5 76t-85.5 82t47 77t47 82.5t-102.5 261t-102.5 260.5t32 42q82 0 124 -60q21 -30 124 -253l88 -204q40 -94 42 -94q16 0 128.5 256t136.5 295q38 61 118 61q25 0 25 -30t-102 -254.5t-102 -305.5z" />
    <glyph glyph-name="brokenbar" unicode="&#xa6;" horiz-adv-x="694" 
d="M419 1426v-61l-1 -8v-45l-1 -26v-156q0 -359 -33 -359h-72q-26 0 -26 33l-2 16l-1 26v587q0 59 27 59h79q30 0 30 -66zM417 -256q0 -37 -30 -37h-72q-31 0 -31 380l-1 27v247q0 71 25 71h73q35 0 35 -40l1 -17v-421l1 -27v-79l1 -26v-53q-2 -16 -2 -25z" />
    <glyph glyph-name="section" unicode="&#xa7;" horiz-adv-x="1118" 
d="M897 84q0 -134 -98 -217t-240 -83h-34q-120 0 -237 70q-87 52 -87 117q0 54 61 54q30 0 119 -54.5t176.5 -54.5t138 45t50.5 113t-62 125q-4 4 -165.5 105t-230 187.5t-68.5 224.5q0 74 45.5 149t45.5 78q0 23 -43.5 95.5t-43.5 147.5q0 122 89.5 206t223 84t252 -53
t118.5 -111q0 -74 -70 -74q-15 0 -104.5 53t-193.5 53q-62 0 -110 -42.5t-48 -107.5t67 -122q12 -10 163.5 -105t204.5 -157q82 -97 82 -230q0 -72 -44.5 -151.5t-44.5 -94.5t44 -94.5t44 -155.5zM795 523v13q0 77 -65 136t-169.5 123t-119.5 64h-12q-26 0 -57 -34.5
t-31 -86.5v-26q0 -133 278 -285q48 -26 60 -26h19q27 0 62 35t35 87z" />
    <glyph glyph-name="dieresis" unicode="&#xa8;" horiz-adv-x="919" 
d="M757 1324q0 -26 -29 -26q-6 -3 -8 -3l-18 -3h-5l-10 -1h-9l-3 1h-6l-21 3q-9 3 -14 3q-26 0 -26 27l-1 4l-2 6l-4 28v7l-1 11v36l1 3v8l4 24q1 4 1 7q0 33 33 33q12 4 17 4l15 2h24l3 -1l27 -4q3 -1 5 -1q24 0 24 -18q7 -21 7 -29l4 -36v-29l-1 -4v-11l-4 -28
q-3 -9 -3 -13zM213 1464q0 29 33 29q12 4 14 4l18 2h22l3 -1l23 -3q12 -4 17 -4q20 0 20 -26l3 -14l2 -6l3 -36v-26l-1 -4v-7l-3 -25l-5 -26q0 -24 -34 -24l-6 -2l-24 -3h-18l-3 1h-6l-29 5q-29 0 -29 33q-3 9 -3 13l-4 28v7l-1 14v8l1 3v15l5 35q2 6 2 10z" />
    <glyph glyph-name="copyright" unicode="&#xa9;" horiz-adv-x="1567" 
d="M815 -16h-20l-20 1q-109 1 -221 53q-225 106 -324 376q-43 118 -43 244v47q0 135 52.5 269t138.5 226q178 192 413 192h19q110 0 218.5 -48t185.5 -140.5t122 -224t45 -263.5v-47v-6q0 -130 -41 -255q-87 -267 -290 -362q-132 -62 -235 -62zM777 1108h39q85 0 175.5 -47
t90.5 -104q0 -36 -46 -36q-9 0 -78.5 43t-141.5 43q-107 0 -165 -91.5t-58 -233t66.5 -226t184.5 -84.5q49 0 122 46.5t79 46.5q50 0 50 -35q0 -53 -89.5 -108t-192.5 -55h-38q-67 0 -136.5 34t-118.5 93q-94 114 -94 284v21q0 182 107 298q50 54 117 82.5t127 28.5z
M820 1304h-52q-98 0 -192 -55q-184 -108 -259 -311q-44 -118 -44 -245l1 -20v-20q0 -107 47 -225q88 -219 279 -311q93 -45 197 -45l17 1h17q87 1 181 51q202 108 274 349q30 98 30 210l-1 20q0 241 -149 423q-68 83 -163 130.5t-183 47.5z" />
    <glyph glyph-name="ordfeminine" unicode="&#xaa;" horiz-adv-x="785" 
d="M651 1245l-28 -283q0 -36 8.5 -70t8.5 -64q0 -45 -84 -45q-21 0 -35 19.5t-26 19.5t-30 -10l-40 -22q-55 -22 -116 -22t-107 43.5t-46 112.5q0 114 76 180q48 42 175 81t127 71q0 50 -33 81t-97.5 31t-130.5 -30.5t-93 -30.5q-45 0 -45 54q0 21 35 42q105 62 227 62
l18 -1h19q94 0 155.5 -53t61.5 -135v-31zM313 890h28q80 0 132.5 45t52.5 97v54q0 9 -12 9l-4 -1h-7q-32 -8 -47 -8q-96 0 -158 -44t-62 -85v-11q0 -56 77 -56z" />
    <glyph glyph-name="guillemotleft" unicode="&#xab;" horiz-adv-x="1056" 
d="M880 144h-9q-36 0 -166 167l-100 117q-98 118 -98 141t145 187q34 38 60 72q121 156 165.5 156t44.5 -35q0 -52 -131.5 -210t-131.5 -173t132 -173t132 -203.5t-43 -45.5zM493 142h-9q-29 0 -198 203t-169 220t168.5 219t200.5 202h9q38 0 38 -43.5t-132 -202t-132 -174
t133.5 -175.5t133.5 -206v-8q0 -35 -43 -35z" />
    <glyph glyph-name="logicalnot" unicode="&#xac;" horiz-adv-x="1254" 
d="M178 785h428q458 0 480 -10q42 -19 42 -246v-99q0 -36 2 -57l9 -87v-13q0 -28 -23 -28q-81 0 -98.5 38.5t-17.5 185.5t-61 171q-38 15 -400 15t-388 7q-43 12 -43 98q0 28 26 28q42 -3 44 -3z" />
    <glyph glyph-name="uni00AD" unicode="&#xad;" horiz-adv-x="809" 
d="M705 605v-57q0 -38 -22.5 -43.5t-280.5 -5.5h-45l-23 -1h-68q-113 0 -137.5 6t-24.5 44v28q0 66 27 72q17 4 268 4l137 2h16l7 -1h83l28 -2q35 0 35 -46z" />
    <glyph glyph-name="registered" unicode="&#xae;" horiz-adv-x="1459" 
d="M776 1182q201 0 201 -182q0 -122 -91 -196q-36 -29 -36 -39l38 -71q42 -78 50 -94l35 -69q14 -28 26.5 -51t12.5 -25v-8q0 -5 -46.5 -5t-63 19t-72.5 127.5t-74 125.5t-69 17q-42 0 -42 -57l2 -31l3 -104q0 -98 -22 -98h-23q-46 0 -52 24q-10 39 -10 152l-3 31q0 2 -2 30
l-4 62v60l16 225l2 31l1 47q0 45 23 60.5t121 15.5l26 2zM738 1467h35q101 0 195 -53q190 -107 272 -349q42 -123 42 -244v-21l-1 -22q0 -140 -42 -250q-91 -240 -271 -335q-98 -52 -196 -52l-17 1h-18q-88 0 -181 45t-171 135.5t-119 211t-41 246.5v21l1 22q0 251 153 450
q71 93 166 143.5t193 50.5zM924 954v14q0 37 -35.5 67.5t-78.5 30.5l-5 1l-6 1l-22 2h-12l-23 1h-6l-6 -1h-5q-90 0 -110 -20q-10 -10 -10 -107v-13q0 -67 8.5 -77.5t64.5 -10.5h66l5 1l46 3q15 3 21 3q48 0 78 35t30 70zM1179 770v71v5q0 83 -31 178q-65 200 -221 292
q-79 46 -159 46h-28q-78 0 -154 -42q-78 -42 -134 -116q-125 -164 -125 -371v-3v-35q0 -220 130 -385q58 -74 135.5 -114t159.5 -40l14 1h15q68 0 141.5 41t133 116t91.5 174.5t32 181.5z" />
    <glyph glyph-name="macron" unicode="&#xaf;" horiz-adv-x="922" 
d="M850 1482v-53q0 -27 -393 -27h-188l-36 -1h-90q-68 0 -68 28v52q0 27 394 27l188 1h134q59 0 59 -27z" />
    <glyph glyph-name="degree" unicode="&#xb0;" horiz-adv-x="899" 
d="M682 1265v-16q0 -111 -91.5 -202.5t-204.5 -91.5h-26q-85 0 -145.5 60.5t-60.5 136.5v33q0 102 91.5 193.5t203.5 91.5h17q88 0 152 -58t64 -147zM409 1035h9q48 0 90.5 49.5t42.5 101.5l1 5l1 6l1 22v6l-1 6q0 68 -39.5 114t-91.5 46h-4q-48 0 -90.5 -49.5t-42.5 -101.5
l-2 -12l-1 -22v-12q0 -67 39.5 -113t87.5 -46z" />
    <glyph glyph-name="plusminus" unicode="&#xb1;" horiz-adv-x="1272" 
d="M616 1152h58q32 0 38 -14.5t6 -152t15 -149t200 -11.5t204 -7.5t19 -55t-25.5 -56t-202.5 -8.5t-193.5 -15t-16.5 -149.5t-8 -147t-59 -12.5h-19q-51 0 -58 16t-7 150.5t-15.5 146t-186.5 11.5t-203 6t-32 53v16q0 40 20.5 46t203.5 6t198 16t15 144.5t3 141.5
q6 25 46 25zM1154 117v-38q0 -49 -63 -49h-896q-63 0 -63 40v37q0 49 51 49h919q52 0 52 -39z" />
    <glyph glyph-name="uni00B2" unicode="&#xb2;" horiz-adv-x="796" 
d="M491 694h-76l-38 -1h-39q-211 0 -211 36q0 59 53.5 123.5t158 154.5t146 147.5t41.5 114.5t-35.5 89.5t-95 32.5t-130.5 -44t-104 -44t-33 52q0 46 97 93t177 47h20q100 0 164.5 -62t64.5 -147t-42.5 -146.5t-178.5 -179.5t-136 -150q0 -17 156.5 -17t186 -12.5
t29.5 -54.5t-23 -42h-30q-80 10 -122 10z" />
    <glyph glyph-name="uni00B3" unicode="&#xb3;" horiz-adv-x="801" 
d="M510 1322q0 76 -133 76q-37 0 -107 -28.5t-93 -28.5q-37 0 -37 39.5t96 78t192 38.5t150.5 -46.5t54.5 -116t-24 -106.5t-62 -67t-38 -36t48 -29q112 -54 112 -164v-19q0 -96 -80 -162.5t-205 -66.5h-20q-114 0 -210 65q-32 22 -32 41v12q0 41 55 41q12 0 48 -16
t70 -28.5t91 -12.5t106.5 31t49.5 95q0 102 -117 134q-32 8 -61 12t-34 6q-25 10 -25 53q0 36 63 51q142 34 142 154z" />
    <glyph glyph-name="acute" unicode="&#xb4;" horiz-adv-x="833" 
d="M597 1523q51 0 51 -14q0 -23 -53.5 -70t-87.5 -86q-115 -131 -170 -131l-15 -3l-26 -2h-5q-19 0 -19 9v3q0 55 171 250q35 40 97 40l10 2l36 2h11z" />
    <glyph glyph-name="mu" unicode="&#xb5;" horiz-adv-x="1133" 
d="M810 169q-29 0 -117 -57.5t-178 -57.5q-15 0 -50 3l-23 2l-41 6q-29 0 -35.5 -134t-26.5 -198t-87.5 -64t-82.5 39.5t-15 175.5l1 32l1 65l1 32q1 32 1 64l1 33q1 33 1 65l1 33q1 33 1 65l1 33q1 33 1 65l2 65l2 132l1 33q0 19 -4.5 85t-4.5 171t8 129.5t69.5 24.5
t77.5 -33q8 -16 8 -363t23 -406q44 -114 153 -114q66 0 115.5 32t86.5 116q20 45 45.5 303t44.5 326q24 86 106 86q56 0 64 -56q7 -46 7 -370l-2 -133q0 -66 8 -137.5t8 -78.5v-21q0 -61 -61 -61q-28 0 -45 13t-38 34t-28 21z" />
    <glyph glyph-name="paragraph" unicode="&#xb6;" horiz-adv-x="1218" 
d="M909 -222q-33 0 -42 71.5t-9 593.5t-19 693q-5 42 -23 54q-19 12 -85 12q-33 0 -33 -269q0 -549 -47 -1012q-11 -109 -65 -109q-38 0 -43 56q-10 112 -10 288v216l-1 39q-1 39 -1 117t-28 135q-15 32 -95 86q-178 121 -178 328q0 95 34.5 176t79.5 126q83 83 288 83
t287 -29q47 -17 47 -98q0 -28 -15.5 -89t-15.5 -152t17.5 -278.5t17.5 -327.5v-40l-1 -40v-199l-1 -80q0 -283 -7 -306q-14 -45 -52 -45z" />
    <glyph glyph-name="periodcentered" unicode="&#xb7;" horiz-adv-x="665" 
d="M441 575q0 -47 -59 -47l-22 -3h-26l-4 1h-7q-16 4 -21 4q-45 0 -45 43q-3 12 -3 16l-4 32v9l-1 12v18l2 21l6 41q0 47 63 47l18 3h30l25 -4q49 0 49 -47q4 -16 4 -24l2 -21v-48l-1 -4v-8l-3 -25q-3 -12 -3 -16z" />
    <glyph glyph-name="cedilla" unicode="&#xb8;" horiz-adv-x="838" 
d="M572 -219v-21q0 -66 -63.5 -105t-165.5 -39l-16 -1h-31q-48 0 -48 25v11q0 41 56 41q24 4 51 4t57.5 25t30.5 57.5t-45 57t-45 51.5q0 57 33 102q13 18 42 18h27q14 0 14 -18l-8 -56q0 -3 55.5 -53t55.5 -99z" />
    <glyph glyph-name="uni00B9" unicode="&#xb9;" horiz-adv-x="769" 
d="M394 1472h20q57 0 57 -99l3 -35q2 -24 2 -36l1 -23l1 -12l1 -24v-126q0 -159 4.5 -175.5t28.5 -59.5t24 -89.5t-27 -81t-53 -34.5h-61q-34 0 -65 34t-31 70t45 132q15 32 15 169t-25 194q-16 37 -72.5 37t-56.5 26v6q0 36 32 53q140 74 157 74z" />
    <glyph glyph-name="ordmasculine" unicode="&#xba;" horiz-adv-x="809" 
d="M672 1155v-72q0 -142 -73 -233t-184 -91l-9 1q-111 0 -180 94t-69 263l1 12q0 147 69 247.5t180 100.5h19q108 0 177 -94t69 -228zM550 1097v56l-4 45q0 58 -36 112t-85 54h-16q-47 0 -86.5 -56.5t-39.5 -138.5l-3 -22v-32l1 -8v-8q0 -94 33 -160t91 -66h22q55 0 89 68
t34 156z" />
    <glyph glyph-name="guillemotright" unicode="&#xbb;" horiz-adv-x="1055" 
d="M190 149h-9q-36 0 -36 36.5t134 209t134 173.5q0 12 -63 87q-204 244 -204 297q0 36 35 36h9q21 0 188.5 -201t167.5 -217q0 -1 -163.5 -211t-192.5 -210zM534 173v16q0 43 134.5 204.5t134.5 173.5t-134.5 173.5t-134.5 213.5v8q0 29 42 29q23 0 191.5 -202
t168.5 -219.5t-169 -220t-189 -202.5h-8q-36 0 -36 26z" />
    <glyph glyph-name="onequarter" unicode="&#xbc;" horiz-adv-x="1625" 
d="M456 772v-34q0 -112 -54 -112h-59q-22 0 -44.5 25t-22.5 84.5t13 121.5t13 174.5t-25.5 148t-78.5 52t-53 31.5v6q0 19 50 45q166 88 178 88q35 0 51 -60q7 -27 7 -149v-237l1 -22q0 -30 12 -87t12 -75zM365 -26h-15q-38 0 -38 10t382 667.5t435 723.5q24 30 72 30h15
q38 0 38 -9q0 -15 -135 -240t-205.5 -346.5t-141.5 -237.5l-55 -93q-3 -6 -21 -35t-48.5 -81.5t-39.5 -67.5l-18 -31q-7 -12 -16.5 -27.5t-24 -40.5t-23.5 -40l-90 -151q-25 -31 -71 -31zM1481 216v-11q0 -33 -53 -38q-43 -4 -43 -59l1 -24l1 -12l1 -37q0 -42 -17.5 -51
t-67.5 -9h-23q-19 0 -19 85t-13 96.5t-153 11.5h-23l-37 2q-24 2 -65 2t-50.5 12t-9.5 45v12q0 49 175.5 282.5t193.5 233.5h46q43 0 49 -9q6 -10 5 -42v-45l-2 -25v-26l-6 -154q0 -173 4.5 -177.5t65.5 -15.5q40 -7 40 -47zM1257 590q-10 0 -67 -91.5t-116.5 -161
t-59.5 -72t17 -2.5h43l4 1h34q115 0 127.5 15t12.5 171l1 5v10l2 30v11l3 40v23l1 13q0 8 -2 8z" />
    <glyph glyph-name="onehalf" unicode="&#xbd;" horiz-adv-x="1605" 
d="M332 631q-66 0 -66 144q0 25 13.5 89t13.5 181t-37 168q-16 22 -69 31.5t-53 32.5v6q0 20 48 47q148 83 176 83q43 0 53 -70q6 -40 6 -215t2.5 -200t13 -78.5t10.5 -93.5q0 -125 -52 -125h-59zM331 -24h-15q-38 0 -38 9t35 73q336 613 763 1287q38 60 91 60h15
q37 0 37 -9q0 -72 -808 -1374q-29 -46 -80 -46zM1486 26v-31q0 -22 -26 -22h-15l-123 7h-151q-227 0 -227 34q0 48 48 106t160.5 158.5t151.5 150.5t39 111.5t-39.5 92t-100.5 30.5t-126 -50.5t-80 -50.5q-45 0 -45 41q0 61 89 112.5t167 51.5h40q96 0 160.5 -62t64.5 -173
q0 -70 -75 -161q-30 -36 -158.5 -142.5t-128.5 -136.5q0 -11 158 -11t187.5 -8.5t29.5 -46.5z" />
    <glyph glyph-name="threequarters" unicode="&#xbe;" horiz-adv-x="1657" 
d="M382 1414h40q92 0 142.5 -50.5t50.5 -131t-76 -141.5q-31 -25 -31 -31.5t45 -30.5t73.5 -65t28.5 -93v-19q0 -94 -78.5 -161t-188.5 -67h-39q-68 0 -150 35t-82 75v13q0 36 40 36t100 -31t117 -31t104 33.5t47 96.5t-53 102q-30 22 -85 31l-88 14q-13 9 -13 44t68.5 50
t102 48.5t33.5 77.5q0 98 -131 98q-47 0 -107.5 -33.5t-77.5 -33.5q-37 0 -37 27q0 44 76 91t169 47zM433.5 -24q-50.5 0 -50.5 16q0 59 807 1359q34 54 75 54h17q43 0 43 -17q0 -6 -50 -89l-17 -31q-6 -12 -27 -46l-45 -75q-27 -45 -45 -76t-45 -76t-52.5 -88.5
t-44.5 -74.5t-33 -55.5t-74 -122.5t-184.5 -312t-174 -290t-100 -76zM1346 -25h-12q-18 0 -18 85t-12.5 96.5t-153.5 11.5l-72 3l-25 2q-25 2 -36 2q-52 0 -52 53v12q0 35 225 350q120 168 154 168h11l11 -1h12q49 0 53 -22q1 -5 1 -48l-7 -179q0 -218 1 -221q5 -16 66 -24
q42 -6 42 -46v-11q0 -34 -52 -39q-45 -5 -45 -57l2 -24l1 -37q0 -57 -16 -65.5t-78 -8.5zM1085 263h34l5 1l47 -1l4 1l92 6q5 1 9 1q31 0 31 179v10l1 15v10l1 5v10l4 60v29l-1 2q-4 0 -34 -45t-45 -65t-36 -51.5t-45 -63.5l-42 -49q-41 -48 -41 -51t16 -3z" />
    <glyph glyph-name="questiondown" unicode="&#xbf;" horiz-adv-x="996" 
d="M451 1171q0 26 35 26q12 4 19 4l17 2h21l3 -1l27 -3q3 -1 6 -1q41 0 41 -30q5 -20 5 -27l1 -4v-8l2 -13v-8l1 -12v-41l-1 -4l-3 -28q-4 -16 -4 -23q0 -19 -24 -19l-17 -4l-6 -2l-27 -3h-25l-36 6q-34 0 -34 29q-4 12 -4 19l-2 12v8l-2 16v16l-1 13v4l1 4v21l5 40
q2 8 2 11zM503 -250h-39q-144 0 -244.5 96.5t-100.5 225t66 229.5q38 59 140.5 157.5t126 142.5t23.5 155q0 43 39 43h15q52 0 67 -25t15 -105.5t-35.5 -142t-120.5 -143.5t-107 -114q-55 -81 -55 -166.5t54.5 -147t163.5 -61.5q70 0 170.5 61t144.5 61t44 -52v-15
q0 -65 -126.5 -132t-240.5 -67z" />
    <glyph glyph-name="Agrave" unicode="&#xc0;" horiz-adv-x="1289" 
d="M442 1815h36l5 -1q73 0 103 -26q52 -46 120 -148t68 -108v-3q0 -9 -14 -9h-15l-37 5q-48 0 -94 36q-230 179 -230 233v3q0 18 58 18zM1132 75q0 -37 -55.5 -37t-84.5 46q-18 28 -71 163t-60 140q-34 28 -222.5 28t-214.5 -30q-13 -14 -53 -134.5t-67 -168t-83.5 -47.5
t-56.5 22v17q0 6 156.5 560t225.5 739q28 74 105 74q53 0 71 -19.5t39 -81.5q194 -570 331 -1094q40 -153 40 -177zM648 544q174 0 174 21q0 41 -87.5 338.5t-90 297.5t-92.5 -305t-90 -326v-13q0 -12 20 -12l13 -2h75l8 1h70z" />
    <glyph glyph-name="Aacute" unicode="&#xc1;" horiz-adv-x="1288" 
d="M873 1829q43 0 43 -13v-3q0 -22 -59 -74t-72 -66q-110 -126 -181 -126q-15 -3 -21 -3l-26 -3h-15q-13 0 -13 7v3q0 39 167 230q39 44 100 44l11 1l5 1l26 2h35zM1130 71q0 -41 -58.5 -41t-88.5 52t-73.5 171t-49.5 125q-29 28 -219.5 28t-219.5 -30q-15 -15 -54 -135.5
t-67.5 -170.5t-86.5 -50h-18q-37 0 -37 20v16q0 16 185.5 638t205.5 677q29 79 102 79h20q57 0 92 -97q50 -138 124 -412.5t120 -408.5l20 -71l7 -23q13 -40 15 -48l6 -23l15 -47q60 -201 60 -249zM495 548h90l7 1h47q179 0 179 22q0 47 -86 340t-89 293t-92 -302.5
t-89 -326.5v-13q0 -14 33 -14z" />
    <glyph glyph-name="Acircumflex" unicode="&#xc2;" horiz-adv-x="1282" 
d="M636 1827h16q52 0 85 -30q209 -192 209 -240q0 -10 -53 -10h-8q-56 0 -82 18t-91 83t-74.5 65t-112.5 -103q-63 -63 -131 -63h-31q-28 0 -28 9q0 49 212 243q31 28 89 28zM1123 69q0 -40 -58.5 -40t-88 53t-75.5 175.5t-48 124.5q-28 28 -230 28h-42l-21 -1
q-22 -1 -72 -1t-71 -21.5t-61.5 -144t-62.5 -160.5q-35 -61 -91 -61h-18q-39 0 -39 36q0 15 183.5 630.5t210.5 689t101 73.5h20q57 0 92 -97q2 -5 100 -334.5t184.5 -613.5t86.5 -336zM498 548h15l7 1h117q172 0 172 17v14q0 5 -86.5 316t-89.5 311t-93 -305t-90 -334v-6
q0 -14 48 -14z" />
    <glyph glyph-name="Atilde" unicode="&#xc3;" horiz-adv-x="1280" 
d="M497 1781h25q51 0 136 -45t124.5 -45t73.5 44t75 44t41 -38v-8q0 -55 -81 -124q-46 -39 -107 -39h-17q-47 0 -134 46t-130 46t-78 -45t-76.5 -45t-41.5 35v8q0 55 83 125q48 41 107 41zM201.5 22q-56.5 0 -56.5 36q0 16 184.5 635.5t206.5 678.5q29 79 102 79h21
q59 0 99 -119q231 -693 329 -1103q32 -134 32 -157q0 -42 -59 -42t-88.5 53t-74 176t-61.5 132q-36 19 -236 19l-82 -2q-82 0 -108 -28q-12 -13 -56 -140t-62 -158q-34 -60 -90.5 -60zM490 549h28l8 1h93q187 0 187 23q0 48 -86.5 341.5t-89 293.5t-91.5 -303t-89 -336v-6
q0 -14 40 -14z" />
    <glyph glyph-name="Adieresis" unicode="&#xc4;" horiz-adv-x="1282" 
d="M777 1571q-25 0 -25 30l-1 3l-1 4l-3 21v7l-1 7v7l-1 11v22l1 4v7l4 29q3 10 3 13q0 32 36 32l9 3l30 4h9l3 -1l21 -3q9 -3 15 -3q32 0 32 -39l1 -3l1 -4l4 -36v-41l-1 -4l-3 -28q-3 -12 -3 -17q0 -25 -27 -25q-12 -4 -14 -4l-22 -3h-28l-3 1l-22 3q-9 3 -14 3zM401 1581
q-25 0 -25 27l-1 4l-2 6l-5 42v36l1 4v7l4 24q3 9 3 17q0 26 31 26q6 2 9 2l26 4h15l3 -1l32 -4l11 -3q22 0 22 -32q2 -6 2 -10l4 -35v-30l-1 -4v-10l-4 -28l-3 -17q0 -27 -34 -27l-6 -2l-26 -3h-12l-3 1h-6l-21 3q-9 3 -14 3zM1115 57q0 -30 -56.5 -30t-85.5 48t-75 174.5
t-59 134.5q-36 22 -215.5 22t-203.5 -21.5t-66 -147.5t-69.5 -172.5t-75.5 -46.5h-18q-46 0 -46 29q0 6 128.5 471t258.5 846q20 59 42.5 73.5t72 14.5t66.5 -22q48 -63 368 -1197q34 -120 34 -158v-18zM480 548h98l7 1h39q183 0 183 20q0 49 -86.5 343.5t-89.5 294.5
t-92.5 -304.5t-89.5 -338.5q0 -16 31 -16z" />
    <glyph glyph-name="Aring" unicode="&#xc5;" horiz-adv-x="1286" 
d="M836 1725v-24q0 -64 -72.5 -114.5t-141.5 -50.5h-37q-54 0 -95 35t-41 77v10q0 60 64.5 117.5t150.5 57.5h36q56 0 96 -34t40 -74zM1081 47v-19q0 -28 -48.5 -28t-73 44t-73.5 179t-54 138q-35 24 -207.5 24t-198.5 -34q-16 -20 -54 -145t-54 -159q-30 -61 -84 -61h-16
q-32 0 -32 37q0 12 44.5 172t153 570.5t137.5 506t48 125.5t61 30h19q63 0 92 -84q8 -24 96.5 -350.5t166 -606.5t77.5 -339zM724 1714q0 80 -59 80h-13q-30 0 -57.5 -34.5t-27.5 -59.5l-1 -4l-1 -3l-3 -32l1 -4v-13l4 -18q0 -49 44 -49l15 -3h6q9 3 21.5 3t39.5 34t27 61
l3 14v7l1 11v10zM792 552v15q0 91 -145 584q-12 41 -13.5 41t-14.5 -45q-154 -524 -154 -592v-12q0 -9 57 -9h56l7 1h42q165 0 165 17z" />
    <glyph glyph-name="AE" unicode="&#xc6;" horiz-adv-x="1755" 
d="M1155 10h-36q-109 0 -163 51q-32 30 -48.5 144t-29.5 138q-27 50 -152 50q-180 0 -258 -55q-32 -22 -90.5 -102.5t-96 -117t-85.5 -36.5t-48 34q0 40 183 366q51 92 177.5 424t183.5 409.5t122 97t386 19.5l173 1l85 2h75q68 0 68 -48t-82 -65q-50 -11 -242.5 -25
t-211.5 -29q-44 -34 -44 -280q0 -87 50 -113t190.5 -40t143.5 -15q40 -12 40 -71.5t-51 -79.5q-23 -9 -180 -28.5t-194 -38.5q-54 -27 -54 -96q0 -251 51 -290q27 -21 226 -21t260.5 -25.5t61.5 -81.5q0 -45 -77 -61.5t-333 -16.5zM633 575h72q86 0 108 30q6 7 6 79v86l1 19
v19l2 28l3 36q3 27 3 32t2 23l3 27l1 18v47l-2 55v56l1 10v19l2 64v15q0 20 -9 20q-25 0 -82 -122q-240 -510 -240 -539v-5q0 -17 129 -17z" />
    <glyph glyph-name="Ccedilla" unicode="&#xc7;" horiz-adv-x="1305" 
d="M682 1301q-372 0 -372 -563.5t378 -563.5q183 0 360 136q56 45 72.5 45t39 -27t22.5 -59.5t-38 -87t-120 -107.5q-135 -88 -299 -88q-462 0 -587 404q-41 133 -41 292v77q0 356 164 540q163 184 465 184q156 0 273 -66.5t146.5 -110.5t29.5 -87.5t-26 -67t-42 -23.5
t-46 24q-182 148 -379 149zM557.5 -313q56.5 0 89.5 29t33 56.5t-30.5 48t-30.5 37.5q0 111 49 111h43q43 0 43 -63q0 -4 17 -16q69 -47 69 -118v-7q0 -70 -61.5 -120.5t-144.5 -50.5h-30q-101 0 -101 50l-2 13q0 30 56.5 30z" />
    <glyph glyph-name="Egrave" unicode="&#xc8;" horiz-adv-x="1153" 
d="M462 1818q49 0 78 -33q176 -201 176 -243q0 -10 -13 -10h-22l-29 4q-73 0 -186 129l-35 35q-11 11 -16 15t-42 41t-37 52v7q0 9 31 9l9 2h32l35 -5q13 -3 19 -3zM827 1429h70q85 0 85 -74q0 -40 -41 -51t-169 -11h-65q-34 -1 -70 -1q-176 0 -207 -41q-47 -62 -47 -278
q0 -51 49 -71q21 -9 209 -33t209 -36t21 -70.5t-24.5 -72.5t-193 -35t-210.5 -33q-82 -24 -82 -88q0 -128 28.5 -233.5t44.5 -117.5q29 -21 227 -21l69 -2l99 -1q128 0 157.5 -10.5t29.5 -42.5q0 -61 -51 -73q-33 -8 -296 -8t-418 62q-46 18 -46 114q0 31 25.5 264t25.5 319
l-52 508q0 66 69 84q208 53 554 53z" />
    <glyph glyph-name="Eacute" unicode="&#xc9;" horiz-adv-x="1153" 
d="M491 1544q-13 0 -13 9q0 60 181 241q26 26 75 26l21 3l10 2l36 3h20q43 0 43 -12v-3q0 -25 -241 -236q-33 -29 -86 -29l-26 -4h-20zM716 11h-70q-177 0 -371 60q-74 23 -74 92q0 27 32.5 287t32.5 318t-30 268t-30 248.5t17 54.5t105 36q210 47 494 47h36q71 0 98 -14
t27 -57t-42 -54q-30 -8 -127 -8l-62 2l-69 -1q-214 0 -248 -38q-54 -61 -54 -275q0 -53 44 -73q16 -7 207.5 -38t200.5 -36q27 -15 27 -75.5t-22 -74t-196.5 -41t-203.5 -37.5q-83 -28 -83 -88q0 -224 64 -328q25 -40 175 -40l139 -4h132q100 0 125 -9.5t25 -40.5
q0 -58 -53 -73q-29 -8 -246 -8z" />
    <glyph glyph-name="Ecircumflex" unicode="&#xca;" horiz-adv-x="1153" 
d="M351 1553h-32q-23 0 -23 6v4q0 12 27 39l46 47q11 11 23 24l23 25q6 6 47.5 53t47.5 52q30 25 90 25h8q61 0 93 -32q208 -208 208 -232q0 -10 -58.5 -10t-84.5 18t-92 84t-76 66t-78.5 -68.5t-91.5 -84.5t-77 -16zM830 1426h71q87 0 87 -74q0 -42 -48 -54q-31 -8 -196 -8
q-279 0 -314 -42q-48 -57 -48 -281q0 -53 49 -73q7 -3 208.5 -31.5t208.5 -32.5q28 -15 28 -75t-30 -76q-15 -8 -198.5 -34t-204.5 -32q-84 -24 -84 -87q0 -237 56 -336q23 -40 173 -40l105 -3q70 -2 169.5 -2t128 -10t28.5 -42q0 -62 -50 -75q-31 -8 -246 -8h-71
q-196 0 -378 52q-76 22 -76 85t26.5 309t26.5 318l-51 514q0 68 69 86q194 52 561 52z" />
    <glyph glyph-name="Edieresis" unicode="&#xcb;" horiz-adv-x="1144" 
d="M711 1746q0 24 33 24l6 2l23 3h24l3 -1l26 -4q3 -1 6 -1q26 0 26 -27q3 -9 3 -13l1 -3l1 -4l3 -31v-37l-1 -4v-7l-4 -27l-3 -14q0 -27 -34 -27l-6 -2l-23 -3h-21l-3 1l-23 3q-3 1 -6 1l-14 4q-19 0 -19 31l-1 4l-1 3l-3 21v7l-1 7v7l-1 11v18l1 3v7l5 35q3 9 3 13z
M473 1596q0 -21 -33 -21l-2 -1l-3 -1l-27 -3h-15l-3 1h-6l-31 6q-24 0 -24 21q-6 18 -6 26l-4 35v29l1 4v7l1 3v7l7 38q0 21 25 21l11 3l6 2l26 3h10l3 -1l26 -3l11 -2q29 0 29 -28q3 -9 3 -10l4 -27v-7l1 -11v-22l-2 -18v-7l-5 -31q-3 -9 -3 -13zM1010 89q0 -58 -50 -73
q-27 -8 -209 -8l-72 -1q-231 0 -413 53q-76 22 -76 92v31q0 18 26.5 267.5t26.5 313.5t-25.5 268t-25.5 264.5t70 77.5q208 52 562 52l36 1q72 0 97 -16t25 -59t-51 -55q-26 -6 -165 -6h-66q-34 -1 -70 -1q-176 0 -211 -42q-45 -54 -45 -284q0 -53 49 -71q25 -9 214.5 -33
t203.5 -32q28 -16 28 -75.5t-25 -73t-211 -36t-226 -40.5q-57 -25 -57 -109q0 -204 57 -305q24 -43 208 -43l173 -3q153 0 187.5 -12.5t34.5 -41.5z" />
    <glyph glyph-name="Igrave" unicode="&#xcc;" horiz-adv-x="623" 
d="M186 1829q51 0 84 -33t58.5 -75.5t72 -102.5t46.5 -69v-3q0 -8 -17 -8h-21l-32 4q-43 0 -102.5 46.5t-188.5 193.5q-26 30 -26 41.5t42 11.5h26l42 -4q12 -2 16 -2zM441 182v-34q0 -66 -32 -109q-17 -22 -89 -22h-15q-57 0 -73 21q-29 39 -29 130q0 5 19 93.5t19 149.5
l-1 35v213l-1 53v214l-1 36v53q0 110 -19.5 170.5t-19.5 96.5v35q0 84 41 119q15 13 67 13h58q75 0 75 -149q0 -16 -19.5 -97t-19.5 -201v-448l1 -35v-71q0 -98 19.5 -166.5t19.5 -99.5z" />
    <glyph glyph-name="Iacute" unicode="&#xcd;" horiz-adv-x="622" 
d="M536 1839q42 0 42 -12q0 -21 -140 -143.5t-166 -122.5q-20 -4 -26 -4l-25 -3h-10q-17 0 -17 10q0 60 181 241q28 28 86 28q20 4 30 4l11 2h34zM282 1q-92 0 -92 137q0 57 10 84q30 76 30 210v505l-1 36v81q0 54 -20.5 128t-20.5 135t36 105q19 23 77 23h60q33 0 48 -20
q30 -40 30 -93v-18l-1 -18q0 -9 -20.5 -96.5t-20.5 -165.5v-186l-1 -36v-343l1 -53q0 -80 20.5 -154t20.5 -134t-35 -106q-16 -21 -76 -21h-45z" />
    <glyph glyph-name="Icircumflex" unicode="&#xce;" horiz-adv-x="636" 
d="M74 1555h-16q-31 0 -31 6v5q0 43 208 234q34 31 95 31h8q55 0 87 -27q7 -6 109.5 -117.5t102.5 -121t-55.5 -9.5t-91 22t-88.5 84.5t-75 62.5q-9 0 -79 -70t-76 -74q-38 -26 -98 -26zM318 1441h59q33 0 48 -20q30 -40 30 -94l-1 -17v-18q0 -16 -20 -99t-20 -135v-70
l-1 -35v-539q0 -80 20.5 -154t20.5 -132.5t-35 -107.5q-16 -22 -75 -22h-45q-92 0 -92 152l25 117q15 69 15 183v483l-1 36v73q0 54 -20 140t-20 91v35q0 84 43 120q15 13 69 13z" />
    <glyph glyph-name="Idieresis" unicode="&#xcf;" horiz-adv-x="630" 
d="M446 1742q0 24 24 24q8 4 13 4l6 2l27 3h6l3 -1l29 -3l11 -2q28 0 28 -25q5 -15 5 -23l4 -31v-34l-1 -3v-7l-1 -4v-7l-8 -40q0 -20 -30 -20q-6 -2 -8 -2l-12 -3h-6l-9 -1h-15l-3 1h-6l-28 5q-28 0 -28 25q-4 14 -4 17l-1 6l-1 4l-3 35v29l1 3v7l4 28q3 11 3 13zM221 1650
l-8 -52q0 -23 -31 -23q-6 -2 -8 -2l-15 -3h-6l-12 -1h-3l-3 1h-12l-23 4q-8 3 -11 3q-22 0 -22 23l-3 13l-1 4l-1 3l-4 35v36l1 4v7l4 24q4 16 4 20q0 23 31 23l2 1l3 1l29 4h16l3 -1l34 -5q6 -2 9 -2q20 0 20 -25l3 -14l2 -6l3 -32v-30l-1 -3v-7zM323 1439h30q55 0 72 -28
q26 -43 26 -132q0 -17 -20 -100t-20 -202v-576q0 -77 20.5 -162t20.5 -105l-1 -17v-17q0 -55 -37 -90q-17 -16 -81 -16h-15q-66 0 -84 30q-28 46 -28 103.5t19.5 133t19.5 193.5v377l-1 36v145q0 112 -20 175.5t-20 92.5v35q0 71 37 108q16 16 82 16z" />
    <glyph glyph-name="Eth" unicode="&#xd0;" horiz-adv-x="1371" 
d="M258 1392q0 53 122 53l59 3l121 3l20 1h43q116 0 202 -34t168.5 -119t124 -203.5t41.5 -246.5l2 -52q2 -54 2 -82v-51q0 -130 -44 -262t-133.5 -230t-185.5 -134.5t-214 -36.5h-101l-20 1l-41 1q-20 1 -79.5 1t-75.5 18.5t-16 78.5l2 23l3 47q0 3 3 47l4 48q3 47 4 71
l1 24l2 23l7 191q0 59 -13.5 73t-53 25t-50 23t-10.5 54v24q0 44 38 60q73 31 79.5 44.5t6.5 105.5l-5 137l-2 24l-3 47q-8 125 -8 200zM1036 747v43q0 196 -158 354q-77 77 -158 112t-185 35h-17q-73 0 -93 -12t-20 -53q0 -243 42 -327q18 -36 129 -51.5t129 -29.5
t18 -67.5t-18 -62.5t-120 -24t-125 -53q-53 -88 -53 -395q0 -47 127 -47h16q90 1 179 45q171 86 258 305q49 124 49 228z" />
    <glyph glyph-name="Ntilde" unicode="&#xd1;" horiz-adv-x="1374" 
d="M415 1580h-23q-36 0 -36 34v7q0 60 90 129q46 35 109 35l9 -1q45 0 141.5 -45.5t133 -45.5t69.5 46t74.5 46t41.5 -37l-1 -7v-7q0 -46 -83 -116q-45 -38 -98 -38h-25q-53 0 -135 46t-125.5 46t-82 -46t-59.5 -46zM253 1400q87 0 168.5 -113t335.5 -534t270 -421t16 502
t41 558q21 30 85 30q44 0 44 -57q0 -15 -8 -86.5t-8 -279.5l-1 -85v-639l-1 -167q-6 -42 -22 -52t-68 -10t-94 39t-103.5 126.5t-313 499t-261.5 411.5q-15 0 -15 -443t-15.5 -536t-37.5 -108t-64 -15q-49 0 -49 53l13 156l1 84v894l-2 84q0 82 24 100q12 9 65 9z" />
    <glyph glyph-name="Ograve" unicode="&#xd2;" horiz-adv-x="1430" 
d="M519 1829h21l5 -1l38 -3q6 -1 11 -1q60 0 89 -33q177 -202 177 -250v-4q0 -11 -26 -11h-16l-43 4q-34 0 -173.5 122t-139.5 159q0 18 57 18zM1223 769v-48q0 -310 -125.5 -511t-349.5 -201q-12 -10 -29 -10q-109 0 -436 406q-43 140 -43 281v97q0 144 37 276
q79 280 258 369q88 44 189 44h19q217 0 348 -199q65 -98 98.5 -233t33.5 -271zM1061 679v94q0 115 -28 221q-51 191 -153 264q-66 47 -131 47h-27q-60 0 -123 -40t-105 -118q-93 -172 -93 -422v-19q0 -239 85.5 -403.5t242.5 -164.5h13q55 0 113 32q120 65 175 271
q31 116 31 238z" />
    <glyph glyph-name="Oacute" unicode="&#xd3;" horiz-adv-x="1430" 
d="M960 1832q45 0 45 -16q0 -35 -229 -235q-43 -38 -97 -38q-12 -2 -16 -2l-22 -2h-10q-19 0 -19 10q0 44 177 246q28 32 93 32l10 2l37 3h31zM234 691v25q0 170 38 310q77 290 269 396q87 48 207 48q223 0 351.5 -194.5t128.5 -508.5v-24l-1 -24q0 -174 -39 -305
q-126 -423 -466 -423q-12 -10 -28 -10q-107 0 -423 416q-37 135 -37 294zM1061 679v93q0 112 -27.5 218.5t-67.5 170.5q-90 144 -230 144q-81 0 -142.5 -44t-99.5 -114q-93 -172 -93 -422v-19q0 -245 81 -395q94 -173 247 -173h13q146 0 232.5 159.5t86.5 381.5z" />
    <glyph glyph-name="Ocircumflex" unicode="&#xd4;" horiz-adv-x="1424" 
d="M475 1548h-24q-36 0 -36 10q0 50 207 240q37 34 102 34t98 -30q211 -193 211 -243q0 -10 -58 -10t-87 18t-92.5 81.5t-75 63.5t-113.5 -102q-62 -62 -132 -62zM1223 762v-49q-1 -159 -39 -299q-73 -265 -249 -367q-91 -53 -203 -53q-227 0 -364 178q-67 87 -106 229
t-39 270v98q0 127 39 273q39 144 113 244q137 184 361 184l1 1q223 0 355 -202q65 -98 98 -234.5t33 -272.5zM1054 680v75q0 372 -193 512q-56 40 -135 40h-13q-63 0 -124 -40.5t-106 -117.5q-92 -158 -92 -384v-96q0 -230 102 -393q40 -64 98 -101t116 -37h27
q131 0 216 131q46 70 75 179t29 232z" />
    <glyph glyph-name="Otilde" unicode="&#xd5;" horiz-adv-x="1423" 
d="M1062 1741v-8q0 -56 -82 -125q-48 -41 -116 -41l-9 1q-43 0 -139.5 45.5t-132.5 45.5t-73 -44t-78.5 -44t-41.5 37v8q0 56 83 126q50 42 116 42h8q58 0 143 -45t129 -45t77 43t74.5 43t41.5 -39zM224 672v74q0 148 38 291q117 434 478 434q216 0 348.5 -196.5
t132.5 -533.5l-1 -24q0 -312 -131 -517.5t-358 -205.5t-363 179q-69 90 -106.5 229.5t-37.5 269.5zM1051 681v75q0 134 -29 242q-53 196 -162 270q-60 40 -129 40t-128 -32q-119 -65 -180 -289q-30 -113 -30 -241v-57q0 -228 87 -389q44 -82 106.5 -121.5t119.5 -39.5h27
q129 0 214 131q44 68 74 180t30 231z" />
    <glyph glyph-name="Odieresis" unicode="&#xd6;" horiz-adv-x="1425" 
d="M861 1571q-23 0 -23 34q-4 16 -4 22l-2 14v8l-1 7v8l-1 11v8l1 3v8l5 36l5 21q0 20 29 20q15 5 21 5l16 2h26l4 -1l21 -3q3 -1 6 -1q35 0 35 -34q3 -10 3 -14l1 -3l1 -4l3 -29v-35l-1 -4l-3 -30q-4 -16 -4 -21q0 -30 -32 -30q-15 -5 -21 -5l-16 -2h-23l-3 1l-22 3
q-15 5 -21 5zM487 1585q-18 0 -18 17q-6 21 -6 26l-4 28v7l-1 11v11l1 4v11l1 7v7l4 24q1 4 1 7q0 30 25 30q10 5 16 5l21 3h27l3 -1l26 -4q3 -1 5 -1q26 0 26 -27q3 -10 3 -13l4 -28v-7l1 -11v-15l-1 -4v-11l-1 -7v-7l-4 -24q-4 -16 -4 -20q0 -20 -30 -20l-3 -1l-2 -1
l-21 -3h-30q-21 7 -39 7zM1221 781v-73q-1 -154 -37 -289q-74 -275 -252 -377q-90 -52 -189 -52h-18q-225 0 -360.5 190.5t-135.5 521.5v25l1 24q0 167 42 309q81 273 265 368q85 44 192 44h19q97 0 186 -48q178 -97 247 -355q40 -149 40 -288zM710 137h27q146 0 233.5 161
t87.5 400v19l-1 19q0 253 -85 410q-40 74 -101 117.5t-126 43.5h-28q-133 0 -229 -158q-36 -60 -64.5 -169.5t-28.5 -253.5v-19q0 -247 88 -409q39 -73 101 -117t126 -44z" />
    <glyph glyph-name="multiply" unicode="&#xd7;" horiz-adv-x="1302" 
d="M945 167q-18 0 -154.5 171.5t-144.5 171.5q-13 0 -148 -170t-151 -170t-43 31t-27 45t140.5 191t140.5 184.5t-19.5 29t-49.5 59.5l-81 102q-129 162 -129 188q0 9 35.5 49t44.5 40q18 0 154 -171t146.5 -171t145 169.5t150.5 169.5t43.5 -31.5t27.5 -48.5t-140 -187
t-140 -189q0 -1 69 -85l81 -102q129 -162 129 -187q0 -11 -35.5 -50t-44.5 -39z" />
    <glyph glyph-name="Oslash" unicode="&#xd8;" horiz-adv-x="1424" 
d="M615 4q-77 0 -146.5 18.5t-99 18.5t-75 -37t-66.5 -37h-13q-25 0 -25 29v16q0 6 44 77t44 108q0 9 -19 68t-34.5 130t-15.5 225q1 154 45 316t132 284q165 228 446 229q46 0 121 -13l22 -4l41 -9q49 -10 53 -10q38 0 83 34t67 34q33 0 33 -29.5t-41.5 -92.5t-41.5 -90
t21 -79q51 -128 51 -319t-44 -351q-93 -339 -330 -460q-109 -56 -252 -56zM340 581l2 -60q0 -66 18.5 -105.5t24.5 -39.5l149 240q145 235 201 309q208 277 208 296t-38 51.5t-104 32.5h-11q-190 0 -329 -215q-52 -80 -87 -210.5t-35 -274.5v-12zM1123 764v92q0 114 -41 196
q-9 18 -14 18h-6q-20 0 -160 -237q-21 -35 -208.5 -316.5t-187.5 -283.5q0 -24 42 -57.5t116 -33.5h11l11 1q83 0 164.5 42.5t143 126.5t95.5 204.5t34 247.5z" />
    <glyph glyph-name="Ugrave" unicode="&#xd9;" horiz-adv-x="1340" 
d="M795 1549v-3q0 -9 -22 -9h-30l-41 4q-52 0 -167 131q-26 29 -77 74t-51 64v2q0 4 8 4l20 3h28l30 -4q86 0 128 -42q174 -174 174 -224zM1144 1424q45 0 45 -41q0 -8 -7 -97.5t-7 -191.5v-240v-39q0 -309 -15 -411q-34 -239 -223 -338q-117 -62 -271 -62q-303 0 -425 215
q-53 92 -65 202q-12 109 -12 337v280l1 104q0 87 -6.5 147t-6.5 76v28q0 31 26 31h28q93 0 107 -54.5t14 -493.5t54 -559q78 -175 288 -175q92 0 168 43t118 133q59 127 59 477l4 277q0 274 25 313t101 39z" />
    <glyph glyph-name="Uacute" unicode="&#xda;" horiz-adv-x="1341" 
d="M934 1833q10 0 10 -8v-3q0 -50 -235 -233q-42 -33 -91 -33q-10 -2 -15 -2l-21 -2h-9q-14 0 -14 9q0 60 174 234q32 32 72 32q35 7 46 7l31 3h15l4 -1h10q13 -3 23 -3zM1177 708q0 -210 -15 -315t-66 -194.5t-162.5 -149t-259.5 -59.5q-401 0 -486 346q-26 106 -26 281
v455l1 35v69q0 54 -6 118t-6 73v28q0 30 55 30q93 0 107.5 -56.5t14.5 -499t53 -562.5q77 -176 290 -176q91 0 168.5 43.5t119.5 135.5q59 129 59 659q0 317 21 401q15 58 108 58q45 0 45 -42q0 -7 -7 -98t-7 -160l-1 -70v-350z" />
    <glyph glyph-name="Ucircumflex" unicode="&#xdb;" horiz-adv-x="1340" 
d="M426 1556h-40q-20 0 -20 8q0 45 206 234q37 34 95 34h8q60 0 93 -30q210 -193 210 -233v-4q0 -8 -58 -8t-100 29q-10 7 -76.5 73.5t-75 66.5t-111.5 -103q-67 -67 -131 -67zM1178 1091v-349q0 -245 -15 -352t-67.5 -195.5t-164.5 -147.5t-259 -59q-415 0 -491 373
q-20 97 -20 261v445l1 104q0 47 -4 98l-9 94v28q0 32 55 32q94 0 108 -55t14 -501t48 -550.5t123.5 -146.5t178 -42t181 55.5t120.5 168.5t42 524.5t21 488.5q16 60 106 60q46 0 46 -41v-30l-2 -30l-7 -64q-5 -65 -5 -169z" />
    <glyph glyph-name="Udieresis" unicode="&#xdc;" horiz-adv-x="1342" 
d="M940 1607q0 -33 -33 -33q-12 -4 -14 -4l-18 -2h-18l-3 1h-6l-29 5q-27 0 -27 25q-5 18 -5 23l-3 21v7l-1 11v29l8 51q0 24 23 24l50 9h3l3 -1l29 -3l11 -2q27 0 27 -22q6 -18 6 -26l4 -35v-26l-1 -4v-7l-3 -24q-3 -12 -3 -17zM465 1774h30l3 -1l26 -4q3 -1 6 -1
q23 0 23 -17l5 -20q2 -6 2 -10l3 -24v-8l1 -11v-7l-1 -4v-14l-2 -15v-7l-4 -23q0 -31 -25 -31q-15 -5 -17 -5l-20 -3h-24l-29 5q-35 0 -35 32q-4 16 -4 20l-3 25v7l-1 11v3l1 4v15l2 14v7l5 27q0 35 58 35zM1181 1078v-243q0 -321 -8 -393q-17 -155 -75 -251t-169.5 -152.5
t-267 -56.5t-264.5 59.5t-161 158t-63.5 201.5t-11.5 359v310l1 35v69l-12 219q0 28 32 28q119 0 133 -67q11 -53 11 -495t57 -567q78 -169 296 -169q105 0 177.5 53t107.5 131q57 129 57 625l2 210q1 34 1 68q0 137 30 182q19 28 101 28q41 0 41 -47l-10 -125
q-5 -66 -5 -170z" />
    <glyph glyph-name="Yacute" unicode="&#xdd;" horiz-adv-x="1195" 
d="M838 1843q38 0 38 -11v-3q0 -3 -131.5 -134.5t-180.5 -131.5q-1 0 -21 -4l-31 -3q-23 0 -23 10q0 60 182 242q28 28 81 28q25 5 36 5l20 2h30zM1041 1428v-15q0 -8 -155.5 -348.5t-180 -408.5t-24.5 -175l-2 -52v-53l-2 -106q0 -228 -11.5 -250t-74 -22t-73.5 20.5
t-11 198.5l2 80l1 27v53l1 52q0 156 -19.5 210.5t-178.5 402.5t-159 389q0 19 39 19q96 0 138 -71q54 -91 157 -333.5t115 -242.5t113.5 238.5t152 320.5t134.5 82q38 0 38 -16z" />
    <glyph glyph-name="Thorn" unicode="&#xde;" horiz-adv-x="1179" 
d="M908 1093.5q107 -122.5 107 -327.5t-138 -339q-67 -65 -145.5 -93t-201.5 -43t-142.5 -28t-27 -99t-20 -108t-46.5 -22h-33q-64 0 -64 50v18q0 27 24.5 283t24.5 471.5t-7.5 323t-7.5 141.5l-2 40q0 70 57 70h16q43 0 57.5 -23.5t14.5 -124.5q0 -46 23 -61.5t77 -15.5
l142 10q185 0 292 -122.5zM440 512h38l9 1l29 1q10 1 20 1q171 0 265 74t94 187v19l-1 9q0 96 -79 146.5t-216 50.5h-69q-139 0 -157 -38q-12 -26 -12 -225l-1 -25v-25l-1 -8v-17l-1 -33v-74q0 -44 82 -44z" />
    <glyph glyph-name="germandbls" unicode="&#xdf;" horiz-adv-x="1142" 
d="M1031 379v-39q0 -133 -108 -233q-48 -44 -128.5 -76t-134.5 -32h-33q-94 0 -94 63q0 38 34 58q10 6 61 15t58 11q191 48 191 263q0 117 -137 214q-24 17 -67 43t-58 40q-50 46 -50 99t91.5 168.5t91.5 196.5t-50.5 125t-126.5 44t-132 -45.5t-87 -134.5t-31 -504v-160
l-2 -79q-1 -40 -1 -79q0 -176 -25 -248t-85 -72t-60 41q0 22 8 94t8 121l-1 120v123q0 185 -1 204l-6 75q-5 74 -5 172t28.5 212.5t82.5 182.5q98 123 305 123q156 0 246.5 -85.5t90.5 -237.5q0 -64 -70.5 -176.5t-70.5 -136.5q0 -49 90 -134t134 -163.5t44 -172.5z" />
    <glyph glyph-name="agrave" unicode="&#xe0;" horiz-adv-x="1083" 
d="M334 1469h29l5 -1h10q81 0 114 -28t107.5 -140t74.5 -123v-3q0 -9 -16 -9h-15l-5 1l-21 1l-22 2q-10 2 -16 2q-39 0 -160.5 136.5t-121.5 146.5v3q0 12 37 12zM803 36q-34 0 -60 30t-35.5 30t-96.5 -43.5t-157 -43.5q-134 0 -215 84q-53 55 -53 159.5t31 166.5t101 119
t228 93q25 6 63 16l21 5q58 12 77 21q39 20 39 53q0 88 -53 141t-143 53t-187.5 -40t-143.5 -40t-46 54t114 108t232 54h52q152 0 240 -88t88 -233v-24q0 -10 -7 -113l-6 -66q-3 -22 -4 -44l-10 -110q-6 -66 -6 -111t10 -99.5t10 -58.5q0 -73 -83 -73zM745 417v25
q0 57 -30 57h-18q-21 -3 -34 -3q-156 0 -283 -81q-89 -57 -89 -157l1 -6q0 -50 40 -81t90 -31h38q16 2 22 2q92 0 175 68t83 161q5 30 5 46z" />
    <glyph glyph-name="aacute" unicode="&#xe1;" horiz-adv-x="1084" 
d="M762 1481q45 0 45 -11v-6q0 -15 -62 -77l-39 -38q-31 -31 -38 -39q-110 -126 -167 -126q-10 -2 -15 -2l-27 -3h-10q-20 0 -20 9q0 15 65.5 113t104 136.5t90.5 38.5l6 1l5 1l41 3h21zM784 28q-18 0 -43 30.5t-39.5 30.5t-96.5 -45t-158 -45q-130 0 -216 86
q-52 52 -52 156q0 185 122 278q77 59 202 93q14 4 105 26t103 28q37 18 37 54q0 194 -231 194q-60 0 -157.5 -40t-141.5 -40t-44 58.5t126.5 111t246.5 52.5q169 0 262.5 -84.5t93.5 -238.5v-24q0 -26 -17.5 -218.5t-17.5 -250.5l18 -137q0 -35 -20 -55t-82 -20zM743 408v49
q0 45 -35 45h-6l-6 -1l-54 -5q-138 0 -244 -67.5t-106 -159.5v-19q0 -42 40.5 -73.5t96.5 -31.5h23q126 0 222 86q69 62 69 177z" />
    <glyph glyph-name="acircumflex" unicode="&#xe2;" horiz-adv-x="1064" 
d="M524 1485h16q50 0 79 -27q7 -7 51.5 -59t62.5 -76l22 -26q40 -47 57 -65.5t17 -27.5t-22 -9l-16 -2l-24 -1q-52 0 -78.5 20t-90.5 89.5t-69 69.5q-17 0 -76.5 -70t-88 -90t-82.5 -20h-16q-36 0 -36 9.5t26 40.5q166 199 190.5 221.5t77.5 22.5zM729 722q0 196 -230 196
q-62 0 -161 -39.5t-139 -39.5q-46 0 -46 54t118 110t232 56h26q171 0 264.5 -84.5t93.5 -239.5v-24q0 -38 -7.5 -116t-9.5 -109l-4 -44q-13 -143 -13 -181t9.5 -89.5t9.5 -67.5q0 -74 -85 -74q-31 0 -58 31t-37.5 31t-99.5 -44.5t-159 -44.5q-120 0 -196 65.5t-76 173.5
q0 187 120 282q73 58 201 93q8 2 102 24.5t105 27.5q40 18 40 53zM456 148q107 0 186 71.5t79 151.5l4 28q2 14 2 32v12l-1 6q0 57 -23 57h-31q-12 -2 -20 -2q-142 0 -274 -72q-47 -26 -76 -71.5t-29 -83.5v-30q0 -42 42.5 -71.5t102.5 -29.5h16q14 2 22 2z" />
    <glyph glyph-name="atilde" unicode="&#xe3;" horiz-adv-x="1063" 
d="M381 1431h25q51 0 138 -46t123.5 -46t75.5 46t61 46h7q46 0 46 -41v-7q0 -50 -81 -124q-44 -40 -114 -40l-9 1q-43 0 -131 46.5t-127.5 46.5t-75 -46t-76.5 -46t-41 39v15q0 42 62 99t117 57zM784 31q-33 0 -61.5 31.5t-36.5 31.5t-97 -44.5t-160 -44.5h-21
q-100 0 -174.5 64.5t-74.5 158.5q0 191 105 280q76 65 196 100q38 11 123 31t114 34t29 51q0 86 -51.5 139.5t-144 53.5t-190 -40t-141.5 -40t-44 61q0 55 128 107t249 52q167 0 261.5 -82.5t94.5 -217.5v-47q0 -25 -8 -113l-6 -66q-3 -22 -4 -44l-5 -44l-6 -67
q-7 -77 -7 -117.5t9.5 -90.5t9.5 -63q0 -74 -87 -74zM470 151q103 0 179 76t76 191v36q0 51 -29 51h-12l-7 -1h-6q-1 0 -83 -11l-42 -9l-21 -6l-27 -6q-72 -11 -125 -45q-100 -64 -100 -162v-13q2 -10 2 -25.5t36 -47t92 -31.5h38q23 3 29 3z" />
    <glyph glyph-name="adieresis" unicode="&#xe4;" horiz-adv-x="1064" 
d="M798 1291l-8 -53q0 -26 -34 -26q-12 -4 -17 -4l-16 -2h-22l-12 2h-6q-12 4 -17 4q-30 0 -30 32q-3 10 -3 14l-3 21v7l-1 7v11l-1 11v7l1 4l3 29q3 12 3 17q0 35 33 35l9 3l31 4h21l4 -1l32 -5q6 -2 9 -2q16 0 16 -22q5 -15 5 -24l3 -21v-7l1 -11v-19l-1 -4v-7zM259 1350
l6 42q0 24 26 24q8 3 11 3l3 1l2 1l30 2l29 -2l20 -4q28 0 28 -37l1 -7l1 -3l2 -21v-7l1 -12v-14l-1 -4v-11l-1 -7v-7l-6 -38q0 -25 -29 -25q-8 -4 -16 -4l-15 -2h-24l-12 2h-5q-12 4 -17 4q-29 0 -29 32q-2 6 -2 10l-4 24v7l-1 10v29l1 4v7zM878 695l-35 -441q0 -40 10 -93
t10 -72q0 -66 -91 -66q-30 0 -55 31t-37.5 31t-96.5 -44.5t-181.5 -44.5t-182.5 76q-63 56 -63 150q0 189 111 284q90 76 243 111l22 5q142 35 167 49.5t25 54.5q0 95 -71 148q-51 38 -137.5 38t-183 -39.5t-145.5 -39.5q-38 0 -38 66q0 48 119 100.5t239 52.5h26
q163 0 254 -85t91 -226v-46zM406 141h31q129 0 220 91q65 65 65 198l-1 6q0 63 -29 63h-12l-6 -1h-7q-158 0 -281 -67q-59 -32 -88 -77.5t-29 -82.5v-31q0 -41 42 -70t95 -29z" />
    <glyph glyph-name="aring" unicode="&#xe5;" horiz-adv-x="1064" 
d="M721 1411v-28q0 -66 -67.5 -126t-148.5 -60h-25q-61 0 -107 40.5t-46 92.5v22q0 67 67 126.5t149 59.5h25q62 0 107.5 -40t45.5 -87zM883 680l-35 -440q0 -40 9.5 -91t9.5 -74q0 -66 -93 -66q-29 0 -53.5 30.5t-40.5 30.5t-96 -44t-145 -44h-41q-96 0 -170 66
q-73 65 -73 157q0 191 111 286q73 62 199 99l108 28q105 28 118 35q31 18 31 61q0 84 -56 134t-147 50t-186 -39t-145 -39q-37 0 -37 66q0 51 128 102.5t233 51.5h26q163 0 254 -85t91 -228v-47zM434 1350q0 -36 24.5 -66.5t52.5 -30.5h15q26 0 55.5 29.5t29.5 61.5l3 14v22
q0 43 -24 72.5t-55 29.5h-9l-21 -4q-18 0 -43 -31.5t-25 -59.5l-3 -22v-15zM459 140q91 0 176.5 70t85.5 192v48q0 45 -29 45h-12l-6 -1h-7q-52 0 -109 -16t-96 -21.5t-93 -39.5q-100 -64 -100 -156v-24q0 -38 40 -69t112 -31q24 3 38 3z" />
    <glyph glyph-name="ae" unicode="&#xe6;" horiz-adv-x="1611" 
d="M1046 465q-99 0 -124 -12t-25 -69q0 -88 75 -146t164 -58t192 43.5t131 43.5q53 0 53 -36q0 -75 -99 -121t-207 -46q-193 0 -319 88q-77 54 -99 54q-5 0 -66.5 -46t-127 -68t-183 -22t-214.5 72.5t-97 185.5q0 143 140 237q106 71 303 88l68 4q51 3 60 6q27 9 27 58
q0 76 -73 121q-50 31 -128.5 31t-179.5 -45.5t-123 -45.5q-38 0 -38 55.5t97.5 97.5t235 42t227.5 -51l27 -17q45 -28 49 -28q28 0 48 12l25 18q99 71 216 71h36q167 0 283 -106q58 -53 94.5 -131.5t36.5 -145.5v-31q0 -55 -73 -74q-114 -29 -412 -29zM935 642h49l6 1l124 4
q231 0 231 26v23q-2 12 -2 17q0 63 -60.5 117t-121.5 54l-13 2h-34q-89 0 -159 -70t-70 -148v-6q0 -20 50 -20zM705 452q0 42 -33 42l-11 2h-13l-6 -1l-41 -3q-139 0 -248 -76q-79 -55 -79 -135v-30q0 -48 41.5 -77t110.5 -29h14q111 0 186.5 67t75.5 158q2 14 2 19l1 23v40
z" />
    <glyph glyph-name="ccedilla" unicode="&#xe7;" horiz-adv-x="1068" 
d="M965 908q0 -26 -22.5 -56t-32 -30t-69 29t-81.5 37q-85 32 -174 32q-128 0 -197.5 -102.5t-69.5 -286.5t75 -276t198 -92t240 70q62 37 76 37q65 0 65 -98q0 -61 -141 -133q-99 -51 -219 -51q-370 0 -467 336q-28 97 -28 202v28q0 116 32 218q65 205 249 279
q96 39 217 39t218 -50q131 -67 131 -132zM532 -400h-14q-68 0 -89 10.5t-21 46.5v6q0 30 56.5 30t89 28.5t32.5 57t-31 47.5t-31 36q0 112 63 112h7l8 -1q57 0 57 -63q0 -4 19.5 -17t43 -42.5t23.5 -73.5v-7q0 -75 -65 -122.5t-148 -47.5z" />
    <glyph glyph-name="egrave" unicode="&#xe8;" horiz-adv-x="1093" 
d="M361 1478h21l5 -1l32 -2q5 -1 11 -1q56 0 90 -39q167 -191 167 -254q0 -8 -14 -8h-24l-35 5q-45 0 -175.5 130.5t-130.5 153.5q0 16 53 16zM951 172q0 -58 -120 -104q-119 -46 -241 -46q-324 0 -431 299q-29 83 -29 184t37 202q76 208 255 285q110 48 240.5 48
t206.5 -89.5t76 -219.5t-52 -154q-29 -13 -266 -40.5t-257 -32.5q-73 -17 -73 -66q0 -120 82.5 -199.5t207.5 -79.5q82 0 179.5 38.5t135.5 38.5q49 0 49 -64zM801 664v13l-1 6v13q-2 12 -2 18q0 65 -66 123.5t-152 58.5h-22q-103 0 -177 -74t-74 -161v-13q0 -12 54 -12h53
l7 1l146 7q234 0 234 20z" />
    <glyph glyph-name="eacute" unicode="&#xe9;" horiz-adv-x="1093" 
d="M467 1184q-16 0 -16 8v4q0 10 71.5 117t107.5 138.5t121 31.5h26q15 -3 33.5 -3t18.5 -11q0 -17 -132 -149t-178 -132q-12 -2 -16 -2l-21 -2h-15zM900 226q50 0 50 -58.5t-96 -102.5q-127 -58 -252 -58t-204.5 31t-146 99.5t-96.5 163t-30 173.5v51v4v4q0 75 41 176
q80 197 256 277q107 48 214 48h22q130 0 213 -83t83 -221v-21q0 -118 -53 -141q-24 -11 -263.5 -38t-248.5 -29q-95 -19 -95 -69q0 -120 81.5 -201.5t208.5 -81.5q81 0 181 38.5t135 38.5zM801 664v13l-1 6v13q-2 12 -2 18q0 65 -66 123.5t-152 58.5h-30q-14 -2 -21 -2
q-76 0 -149 -73t-73 -160v-12q0 -13 61 -13h33l7 1l146 6q247 0 247 21z" />
    <glyph glyph-name="ecircumflex" unicode="&#xea;" horiz-adv-x="1093" 
d="M561 1485h16q47 0 72 -22.5t66 -76.5t95.5 -113.5t54.5 -70t-56 -10.5h-8q-16 2 -24 2q-44 0 -125.5 89t-87.5 89t-48.5 -42.5t-65 -69t-49.5 -47.5t-79 -21h-24q-33 0 -33 9.5t95 123t120.5 137t80.5 23.5zM900 231q50 0 50 -60t-96 -101q-138 -59 -254.5 -59t-198 28
t-145.5 94t-98.5 159t-34.5 184v25q0 101 41 207q82 212 277 289q100 39 194 39h22q138 0 218 -90t80 -221.5t-52 -156.5q-35 -17 -264 -38t-286 -36t-57 -60q0 -118 81 -199t208 -81q76 0 180.5 38.5t134.5 38.5zM801 667v13l-1 6v13q-2 12 -2 18q0 65 -66 123.5t-152 58.5
h-30q-95 0 -169 -74t-74 -161v-13q0 -12 54 -12h47l6 1l147 6q240 0 240 21z" />
    <glyph glyph-name="edieresis" unicode="&#xeb;" horiz-adv-x="1074" 
d="M658 1378q0 34 37 34q6 2 9 2l6 2l21 2h13l3 -1l24 -3l12 -2q33 0 33 -42q2 -6 2 -10l4 -36v-26l-1 -4v-7l-5 -35q0 -35 -32 -35q-12 -4 -18 -4l-12 -2h-34l-35 7q-25 0 -25 26q-6 21 -6 27l-1 3v7l-1 4v7l-1 15v25l1 4l3 24q3 12 3 18zM281 1349l7 44q0 24 33 24l26 5
h27q21 -7 37 -7q22 0 22 -23q5 -18 5 -23l3 -21v-48l-2 -14v-7l-7 -37q0 -18 -24 -18q-15 -5 -20 -5l-14 -2h-24l-12 2h-6q-12 4 -17 4q-28 0 -28 28q-4 16 -4 20l-4 35v29l1 4v7zM272 427q0 -116 80.5 -199.5t211.5 -83.5q84 0 184 38.5t133 38.5q51 0 51 -46v-17
q0 -56 -96 -96q-139 -58 -265 -58q-323 0 -431 284q-34 91 -35 183v26q0 104 40.5 208t109 174.5t165 111.5t195.5 41h21q139 0 217 -87.5t78 -260.5q0 -92 -47.5 -114.5t-256.5 -41.5t-282 -35.5t-73 -65.5zM342 634h53l7 1l147 7q234 0 234 20v12l-1 7v13q-2 12 -2 18
q0 65 -66 123.5t-153 58.5h-29q-14 -2 -21 -2q-77 0 -150 -73t-73 -154v-18q0 -13 54 -13z" />
    <glyph glyph-name="igrave" unicode="&#xec;" horiz-adv-x="600" 
d="M435 1187q0 -8 -21 -8h-15l-6 1l-21 2q-10 2 -16 2q-47 0 -172.5 143t-125.5 144v2q0 9 28 9l28 3h16l42 -4q57 0 89 -37q174 -199 174 -257zM405 173q0 -109 -21 -146q-8 -15 -65 -15h-21q-51 0 -59 20q-16 39 -16 150l1 38l2 24q1 12 1 24l6 71q4 48 4 73l-1 38v128
q0 198 -14 282.5t-14 128t12.5 54t60.5 10.5h42q52 0 62 -73q5 -37 5 -297l1 -26v-192l2 -49q1 -12 1 -24l11 -144v-75z" />
    <glyph glyph-name="iacute" unicode="&#xed;" horiz-adv-x="599" 
d="M211 1192q-20 0 -20 10t67 110.5t106 139.5t141 39l6 1q55 0 55 -10v-3q0 -22 -53 -68.5t-87 -85.5q-111 -127 -158 -127q-20 -4 -31 -4l-11 -2h-15zM402 159q0 -109 -24 -145q-10 -15 -67 -15h-32q-42 0 -51 20q-17 35 -17 89q1 54 9 160t8 216v136l-3 88v25l-4 61
l-22 170v23q0 40 12 50t62 10h43q51 0 65 -72q5 -26 5 -219v-303q0 -26 7 -110l9 -107v-77z" />
    <glyph glyph-name="icircumflex" unicode="&#xee;" horiz-adv-x="582" 
d="M296 1492h16q48 0 83 -35q199 -199 199 -247q0 -8 -56.5 -8t-78.5 17t-89.5 91t-76.5 74t-72 -74t-88 -91.5t-79 -17.5h-16q-32 0 -32 7v4q0 11 57.5 73.5t93.5 112.5t62 72t77 22zM394 161q0 -109 -24 -145q-11 -16 -67 -16h-21q-51 0 -61 21q-17 36 -17 94t15 238
q1 12 1 217.5t-14.5 291t-14.5 126.5t12 52t62 11h43q52 0 65 -73q5 -28 5 -220v-302l16 -218v-77z" />
    <glyph glyph-name="idieresis" unicode="&#xef;" horiz-adv-x="578" 
d="M561 1297l-8 -51q0 -23 -30 -23q-12 -4 -17 -4l-15 -2h-21l-3 1h-5q-25 5 -26 5q-27 0 -27 25q-5 18 -5 23l-3 25v7l-1 10v25l1 4v7l4 24l2 14q0 30 35 30q6 2 8 2l32 3l27 -2l19 -4q24 0 24 -21q6 -18 6 -26l4 -35v-26l-1 -4v-7zM158 1416q23 0 23 -19q6 -18 6 -26
l4 -35v-26l-1 -3v-11l-4 -28l-5 -26q0 -20 -33 -20l-6 -2l-26 -3h-9l-3 1h-6l-6 1h-5l-20 4q-30 0 -30 30l-3 10l-4 27v7l-1 11v25l1 4v7l6 41q0 32 33 32q6 2 9 2l3 1l2 1l21 2h12l3 -1l26 -3q9 -3 13 -3zM390 153q0 -107 -24 -145q-10 -16 -77 -16h-11q-52 0 -61 21
q-17 38 -17 151l16 194v205q0 214 -14.5 293.5t-14.5 103.5v11q0 51 12.5 61.5t50.5 10.5h65q44 0 55 -84q4 -29 4 -215v-296q0 -26 7 -110l9 -108v-77z" />
    <glyph glyph-name="eth" unicode="&#xf0;" horiz-adv-x="1130" 
d="M824 1352q0 -8 -15.5 -44.5t-15.5 -66.5q0 -29 53 -129q108 -206 109 -416v-85v-5q0 -285 -125 -460q-54 -76 -134.5 -118.5t-171.5 -42.5h-25h-4q-67 0 -127 35q-188 107 -189 412v29q0 117 35 219q69 200 219 284q82 46 166 46t84 31q0 59 -62 119q-32 31 -124 31
l-95 -8q-42 0 -42 47q0 19 25 54.5t25 51t-27.5 44t-27.5 42.5q0 40 66 40q34 0 96.5 -29t110.5 -29l135 15q61 0 61 -67zM344 465q0 -160 64.5 -248t152.5 -88l9 1q99 0 158 105.5t59 249.5v60q0 157 -59.5 246t-150.5 89h-9q-97 0 -153 -84q-69 -104 -69 -261l-2 -23v-47z
" />
    <glyph glyph-name="ntilde" unicode="&#xf1;" horiz-adv-x="1123" 
d="M420 1440h25q56 0 139.5 -47t124 -47t74 46.5t74 46.5t40.5 -38v-7q0 -48 -61.5 -104.5t-117.5 -56.5h-25q-43 0 -132.5 47.5t-125.5 47.5t-75.5 -47.5t-62.5 -47.5h-15q-41 0 -41 37v7q0 48 82 123q44 40 97 40zM161 728q0 206 13 233q22 46 74 46t68 -36q2 -4 10 -33
t16 -29t52 34q134 105 249 105h28q73 0 142.5 -39.5t114.5 -124t45 -393.5q0 -135 7.5 -213t7.5 -100v-90q0 -56 -35 -56h-22q-75 0 -91 42q-25 67 -25 353t-48 389q-27 59 -71.5 80t-106 21t-121 -42.5t-104.5 -117t-45 -325t-20 -326.5q-15 -58 -100 -58q-52 0 -52 58v222
l15 178v56l-1 55v111z" />
    <glyph glyph-name="ograve" unicode="&#xf2;" 
d="M704 1182v-7q0 -7 -20 -7h-26l-6 1q-58 0 -86 22q-78 61 -213 215q-33 38 -33 52v6q0 12 36 12l10 2h47l16 -2l22 -2q47 0 77 -30t103 -139.5t73 -122.5zM965 573v-90q0 -85 -30 -185q-60 -199 -206 -266q-65 -30 -145 -30q-253 0 -353 290q-35 102 -35 212v73
q0 102 32 203q60 193 193 261q70 35 128 35h43q72 0 142 -36q142 -74 197 -254q34 -110 34 -213zM571 125h19q86 0 153 97t67 224l3 37l1 39v12q0 160 -63 279q-26 49 -70.5 77.5t-98.5 28.5l-10 -1q-44 0 -89.5 -30t-74.5 -86q-60 -113 -60 -268l1 -13v-25q0 -148 61 -263
q25 -47 71 -77.5t90 -30.5z" />
    <glyph glyph-name="oacute" unicode="&#xf3;" 
d="M761 1487h36q48 0 48 -14l-131 -150q-118 -135 -165 -135l-10 -2l-22 -2l-5 -1h-21q-25 0 -25 9v3q0 12 74 123t107.5 140t113.5 29zM971 574v-37q0 -375 -235 -509q-67 -38 -160 -38h-15q-86 0 -158.5 41t-118.5 111q-94 144 -94 364v18q0 249 112 399q51 69 121.5 109
t149.5 40h43q60 0 130 -33q137 -65 198 -267q27 -90 27 -198zM571 127h19q87 0 154 97.5t67 235.5l2 25l1 38v13q0 170 -63 277t-160 107h-18q-95 0 -159.5 -109.5t-64.5 -262.5v-25l1 -13v-12q0 -148 61 -263q28 -53 73.5 -80.5t86.5 -27.5z" />
    <glyph glyph-name="ocircumflex" unicode="&#xf4;" horiz-adv-x="1130" 
d="M566 1490h16q50 0 85 -35q202 -202 202 -247v-5q0 -10 -56 -10h-8q-49 0 -73.5 17t-91 89t-78 72t-69 -67.5t-87.5 -88.5t-83 -21t-53 11.5t19 32t96 111.5l22 26l10 14l11 13q29 40 55.5 64t82.5 24zM960 569v-54q0 -218 -102 -366q-51 -74 -126 -114.5t-155 -40.5h-44
q-72 0 -142.5 40t-122.5 114q-96 138 -96 347v55q0 218 113 378q49 69 122.5 109t149.5 40h29q76 -1 147 -39q140 -76 194 -253q33 -110 33 -216zM332 553v-38l1 -12v-13q0 -161 65.5 -262t165.5 -101h9q49 0 93.5 30t73.5 84q61 115 61 286.5t-45.5 257.5t-90.5 113t-86 27
h-19q-93 0 -160.5 -104.5t-67.5 -267.5z" />
    <glyph glyph-name="otilde" unicode="&#xf5;" horiz-adv-x="1127" 
d="M427 1436h16q52 0 139 -46t126 -46t73.5 44.5t74.5 44.5t40 -41v-7q0 -56 -81 -125q-47 -40 -98 -40h-25q-44 0 -132 46.5t-128.5 46.5t-75 -45t-76 -45t-41.5 45.5t75 120.5q47 47 113 47zM955 572v-55v-7q0 -105 -29 -202q-60 -204 -206 -278q-71 -37 -160 -37h-15
q-169 0 -271.5 146.5t-102.5 372.5v18q0 106 27 210q54 210 199 291q76 43 157 43h29q68 0 139 -34t122.5 -101t81 -164.5t29.5 -202.5zM795 498v63q0 151 -62 256.5t-157 105.5h-19q-86 0 -155 -100.5t-69 -257.5v-64q0 -162 62 -267.5t157 -105.5h19q97 0 160.5 108
t63.5 262z" />
    <glyph glyph-name="odieresis" unicode="&#xf6;" horiz-adv-x="1127" 
d="M711 1211q-37 0 -37 34q-3 10 -3 14l-4 29v7l-1 11v26l1 4v7l4 25q1 4 3.5 13t2.5 14q0 16 24 16q18 6 24 6l15 2h26l3 -1l21 -3q3 -1 6 -1q34 0 34 -33l3 -11l4 -28v-7l1 -12v-19l-1 -3v-12l-4 -28l-3 -18q0 -32 -39 -32l-6 -2l-25 -3h-13l-3 1h-6l-21 3q-3 1 -6 1z
M330 1225q-25 0 -25 24l-3 14l-5 34v7l-1 14v4l1 4v18l1 3v7l4 24q4 16 4 20q0 20 30 20l2 1l3 1l29 4h12l3 -1l26 -3l11 -2q28 0 28 -25q3 -9 3 -13l2 -6l3 -32v-37l-1 -3v-11l-6 -38q-3 -9 -3 -13q0 -14 -21 -14q-10 -5 -16 -5l-23 -3h-18l-3 1h-6l-23 4q-6 2 -8 2z
M950 563v-36l-1 -19q0 -231 -108 -378q-108 -146 -284 -146l-15 1h-14q-62 1 -130 35q-130 66 -193 255q-33 99 -33 233v18q0 123 30 224q61 202 194 276q78 44 157 44h29q84 0 156.5 -44.5t117.5 -112.5q94 -144 94 -350zM796 504v51q0 149 -72 271q-54 91 -149 91h-18
q-46 0 -91.5 -30t-74.5 -86q-61 -115 -61 -255v-26l1 -12v-13q0 -151 60 -264q24 -45 69.5 -77.5t100.5 -32.5h9q105 0 165.5 114.5t60.5 268.5z" />
    <glyph glyph-name="divide" unicode="&#xf7;" horiz-adv-x="1271" 
d="M541 1021l4 26q0 54 55 54l11 3l47 4h16l4 -1l33 -3q12 -3 17 -3q34 0 34 -69v-10l-1 -3v-7l-3 -23q-2 -6 -2 -10q0 -52 -62 -52l-4 -1l-3 -1l-32 -3h-39q-71 0 -71 44q-2 6 -2 9l-3 19v23zM1155 647v-48q0 -40 -32 -45t-366 -5h-496q-116 0 -116 34v48q0 41 29.5 45
t495.5 4l23 1h277q185 0 185 -34zM768 232l-2 -15q0 -56 -37 -56q-20 -5 -22 -5l-8 -2l-35 -3h-34l-4 1h-8l-30 4q-8 2 -11 2q-42 0 -42 51l-3 12v6l-1 9l5 31q0 50 36 50q21 6 29 6l40 4h25l4 -1l35 -3q12 -3 19 -3q45 0 45 -70v-15z" />
    <glyph glyph-name="oslash" unicode="&#xf8;" horiz-adv-x="1138" 
d="M958 1083q39 0 39 -37q0 -13 -35.5 -62.5t-35.5 -70t16 -60.5q41 -103 41 -239q-1 -136 -39 -255q-117 -363 -468 -363l-136 15q-45 0 -80 -31.5t-69 -31.5t-34 25v12q0 16 36.5 67.5t36.5 69.5q0 20 -17 62q-41 102 -41 232q0 276 133.5 450.5t351.5 174.5l181 -17
q27 0 59.5 29.5t60.5 29.5zM310 411q0 -120 27 -120q1 0 128.5 198.5t192.5 275.5t65 88v6q0 52 -85 52h-21q-44 0 -101.5 -28.5t-98.5 -82.5q-102 -133 -102 -278l-4 -46l-1 -8l-1 -9v-24l1 -8v-16zM529 122h14l7 1h8q47 0 105.5 27.5t101.5 84.5q91 121 91 294v54l-2 25
l-2 33q0 99 -35 99q-6 0 -121.5 -173.5t-189 -276.5t-73.5 -114.5t26.5 -32.5t69.5 -21z" />
    <glyph glyph-name="ugrave" unicode="&#xf9;" horiz-adv-x="1135" 
d="M690 1192v-6q0 -8 -29 -8h-15q-15 3 -27 3q-70 0 -163 119q-14 18 -80 84t-66 77.5t9 11.5q8 2 12 2l18 2h10l40 -4q73 0 115.5 -36.5t109 -136t66.5 -108.5zM969 345q0 -219 -5 -237q-15 -54 -100 -54q-27 0 -42 25q-1 1 -12 28t-17 27q-13 0 -51 -29q-126 -95 -252 -95
q-83 0 -150.5 35.5t-107.5 99.5q-62 100 -62 429q0 155 -7 225.5t-7 104.5v44l1 22q0 56 34 56h23q73 0 92.5 -48t19.5 -339t46.5 -396t174.5 -105q137 0 223 153q42 75 42 348.5t16.5 321t116.5 47.5q39 0 39 -97v-154l-15 -199v-213z" />
    <glyph glyph-name="uacute" unicode="&#xfa;" horiz-adv-x="1135" 
d="M789 1491q46 0 46 -12.5t-134.5 -147t-169.5 -134.5q-16 -3 -21 -3l-10 -2h-26q-15 0 -15 8v3q0 49 172 246q32 37 86 37l5 1l6 1l41 3h20zM865 43q-33 0 -50 40.5t-33 40.5q-1 0 -43.5 -31t-71.5 -48q-81 -47 -171 -47q-182 0 -267 136q-43 68 -52.5 146.5t-9.5 263
t-7 252.5t-7 80v89q0 57 35 57h23q75 0 95 -45.5t20 -339.5t45 -401t177 -107q65 0 124.5 40.5t100.5 115.5t41 352.5t18 324t116 46.5q39 0 39 -75v-155q0 -33 -7 -104.5t-8 -90.5t-1 -242t-5 -241q-16 -57 -101 -57z" />
    <glyph glyph-name="ucircumflex" unicode="&#xfb;" horiz-adv-x="1116" 
d="M317 1202h-40q-16 0 -16 6v4q0 11 50 66q63 68 92.5 109t63.5 75q35 32 93.5 32t94.5 -36q203 -203 203 -248q0 -8 -41 -8h-24q-63 0 -129 71q-103 112 -109 112q-13 0 -74.5 -72.5t-89 -91.5t-74.5 -19zM853 44q-33 0 -50 41t-33 41l-52 -38q-179 -89 -220 -89h-5
q-197 0 -278 135q-41 67 -52 146.5t-11 268.5t-6.5 252.5t-6.5 76.5v89q0 59 33 59q97 0 118 -46.5t21 -340t46 -402.5t175 -109q65 0 124.5 39.5t102.5 114.5t43 351.5t17.5 327.5t113.5 51q41 0 41 -97v-133q0 -35 -7 -104t-8 -90t-1 -252.5t-12 -254.5q-20 -37 -93 -37z
" />
    <glyph glyph-name="udieresis" unicode="&#xfc;" horiz-adv-x="1126" 
d="M681 1337l7 48q0 25 26 25q8 3 11 3l6 2l26 3h12l3 -1l32 -4q8 -3 11 -3q19 0 19 -19q6 -21 6 -27l3 -20v-8l1 -10v-19l-1 -3v-15l-5 -34l-3 -14q0 -23 -30 -23l-6 -2l-29 -4h-12l-3 1h-6l-6 1h-6l-20 4q-26 0 -26 19q-4 12 -4 16l-2 6l-3 25v7l-1 7v7l-1 14v7l1 4v7z
M329 1221q-22 0 -22 33l-2 6l-4 35v43l1 4v7l4 24q1 4 1 7q0 33 36 33l6 2l23 3h21l3 -1l23 -3q9 -3 14 -3q24 0 24 -30q4 -12 4 -20l2 -14v-7l1 -15v-15l-1 -3v-11l-1 -7v-7l-6 -38q0 -25 -29 -25l-29 -6h-30q-24 8 -39 8zM867 34q-32 0 -49.5 40.5t-33.5 40.5
q-1 0 -44.5 -32.5t-70.5 -47.5q-83 -47 -179.5 -47t-167.5 43.5t-106 114.5q-50 100 -50 411q0 137 -7 226.5t-7 129.5v23q0 80 35 80q99 0 118 -46.5t19 -342.5t47 -402.5t177 -106.5q64 0 123.5 39.5t102.5 115t43 355t18 327t114 47.5q40 0 40 -99v-111q0 -43 -4 -93
l-4 -51q-6 -67 -7 -80.5t-1 -237t-5 -241.5q-15 -55 -101 -55z" />
    <glyph glyph-name="yacute" unicode="&#xfd;" horiz-adv-x="1012" 
d="M737 1491q41 0 41 -12q0 -51 -237 -258q-31 -27 -76 -27q-10 -2 -16 -2l-20 -2h-5q-20 0 -20 8v4q0 53 171 248q32 37 91 37q12 2 16 2l20 2h35zM877 1000q0 -9 -35.5 -144t-45.5 -170l-30 -108q-141 -544 -219.5 -701.5t-157.5 -218t-185 -60.5q-54 0 -54 26q0 45 29 78
q9 10 47 27q204 90 204 314q0 96 -141.5 481.5t-141.5 443.5t70 58q39 0 65 -34q57 -75 139.5 -400.5t89.5 -325.5q14 0 74.5 199.5t92 320t58.5 185.5t84 65t57 -36z" />
    <glyph glyph-name="thorn" unicode="&#xfe;" horiz-adv-x="1135" 
d="M357 30q-19 0 -19 -142.5t-17 -185t-73 -42.5h-20q-44 0 -44 64q0 9 22 238.5t22 434.5v261l-2 83q-1 28 -1 100.5t-20.5 286t-20.5 239.5q0 57 73 57q53 0 67 -54t14 -207.5t19 -153.5q3 -1 27 17q87 64 180 64q189 0 296 -154.5t107 -403t-112 -409.5t-319 -161
q-41 0 -109 34t-70 34zM804 510v51q0 150 -58 253t-149 103h-25q-70 0 -126.5 -70.5t-56.5 -203.5l-2 -22l-3 -94v-35q0 -199 35 -265q48 -91 139 -91h25q100 0 160.5 108t60.5 266z" />
    <glyph glyph-name="ydieresis" unicode="&#xff;" horiz-adv-x="1013" 
d="M690 1205l-34 7q-23 0 -23 27l-2 6l-5 38v7l-1 14v18l1 4v7l4 28l2 13q0 30 32 30q12 4 17 4l14 2h24l3 -1l23 -3l11 -3q24 0 24 -29l5 -24v-7l2 -18v-33l-1 -4v-7l-6 -41q0 -29 -29 -29q-12 -4 -17 -4l-11 -2h-33zM405 1281l-8 -51q0 -19 -27 -19q-12 -4 -17 -4l-14 -2
h-24l-3 1h-6q-25 5 -26 5q-26 0 -26 22q-5 15 -5 23l-4 35v36l1 3l3 28q1 4 1 7q2 8 2 10l3 13q0 15 23 15q9 3 11 3l6 2l26 3h3l3 -1l27 -2l19 -4q26 0 26 -27q2 -6 2 -10l1 -3l1 -4l3 -31v-37l-1 -4v-7zM879 989q0 -21 -134 -504t-198 -621.5t-128 -195.5
q-97 -86 -211 -86q-55 0 -55 26q0 47 28 78q7 9 45 27q204 98 204 316q0 94 -141.5 479t-141.5 440q0 64 68 64q41 0 65 -34q61 -83 141.5 -405.5t88.5 -322.5q16 0 80 212t94.5 328.5t49.5 161.5q29 71 76 71q69 0 69 -34z" />
    <glyph glyph-name="dotlessi" unicode="&#x131;" horiz-adv-x="562" 
d="M378 156q0 -107 -24 -145q-10 -16 -66 -16h-22q-51 0 -60 21q-18 41 -18 114.5t7.5 133.5t7.5 84l2 24v245l-1 26v25l-2 50l-3 61q0 33 -11.5 96t-11.5 86v23q0 61 63 61h64q41 0 54 -72q5 -29 5 -195v-340q2 -26 2 -32t3 -42l11 -131v-77z" />
    <glyph glyph-name="Lslash" unicode="&#x141;" horiz-adv-x="1107" 
d="M376 1322l-6 -240q0 -94 11 -115t51 -21q8 0 72 23.5t82 23.5q37 0 37 -46.5t-23 -77.5t-63 -64q-128 -106 -149 -155.5t-21 -245t38 -227.5t294 -32t287 -10q57 -18 57 -74t-40 -56l-76 6q-39 3 -82 3l-29 -1h-58l-58 -1h-57q-349 0 -396 38q-32 26 -32 261t-30 235
q-67 0 -67 69q0 43 78 147q39 52 39 157q0 10 -9 122.5t-9 205.5t17.5 129.5t63 36.5t62 -22.5t16.5 -68.5z" />
    <glyph glyph-name="lslash" unicode="&#x142;" horiz-adv-x="640" 
d="M386 486q0 -92 28 -225t28 -181t-18 -61t-76 -13t-81 72q-34 105 -34 289t-14 213.5t-71 29.5t-57 52v12q0 44 59 103l28 26q28 28 35 42q23 46 23 144l-3 60v42l-1 42q0 65 -10.5 147t-10.5 152q0 64 84 64h18q47 0 55 -40q15 -78 15 -236t12.5 -194.5t62.5 -36.5l26 5
q16 3 25 3q33 0 33 -44t-80.5 -127.5t-80.5 -157.5q5 -90 5 -182z" />
    <glyph glyph-name="OE" unicode="&#x152;" horiz-adv-x="1905" 
d="M1534 1466h35q101 0 140 -33q17 -14 17 -31q0 -54 -80 -76l-34 -7q-21 -3 -77 -5l-81 -3q-188 -14 -221.5 -33.5t-49 -71t-15.5 -164.5t27.5 -133.5t186.5 -29t198 -20.5t39 -76.5t-39 -81.5q-14 -6 -190.5 -25t-200.5 -36q-39 -28 -39 -115q0 -234 44.5 -290.5
t214 -56.5t252.5 -17t83 -72q0 -37 -61 -58q-41 -14 -168 -14l-72 -2q-71 0 -195 30.5t-194 30.5q-13 0 -118 -28t-192.5 -28t-187.5 42t-178 124q-165 175 -165 446v43q0 199 28.5 331t104.5 236q159 220 458 220q47 0 146 -26.5t147.5 -26.5t115.5 18t126.5 28.5
t194.5 10.5zM725 160q62 0 111 32t64 73q66 183 66 476v51q0 304 -69 448q-16 33 -63.5 58t-97.5 25h-27q-146 0 -253 -164t-107 -420t100.5 -417.5t247.5 -161.5h28z" />
    <glyph glyph-name="oe" unicode="&#x153;" horiz-adv-x="1747" 
d="M1690 609q0 -76 -101 -98t-306.5 -22t-227 -11.5t-21.5 -60.5q0 -88 79 -155.5t195 -67.5q71 0 181.5 51t133.5 51q47 0 47 -59.5t-131 -118.5q-91 -41 -200 -41q-175 0 -298 82q-86 58 -106.5 58t-65.5 -42t-70 -56q-76 -43 -170 -43h-32q-95 0 -183 32
q-187 69 -260 252q-38 94 -38 202q0 198 119 324.5t316 126.5h32q141 0 256 -86q81 -60 88 -60t57.5 43.5t112 73t155.5 29.5h32q164 0 277 -105q63 -59 96 -135.5t33 -134.5v-29zM1505 707v12q-2 12 -2 17q0 63 -64 120t-153 57l-8 -1h-6q-92 0 -170 -69.5t-78 -150.5v-11
q0 -17 31 -17l28 -3h19l6 1l146 6q251 0 251 39zM564 147h19q97 0 164 119q53 94 53 277v12q0 185 -61.5 283.5t-146.5 98.5h-29q-91 0 -161.5 -109t-70.5 -265v-37q0 -144 63 -263q28 -52 76 -84t94 -32z" />
    <glyph glyph-name="Scaron" unicode="&#x160;" horiz-adv-x="1154" 
d="M836 1841h23q32 0 32 -6v-4q0 -21 -209 -230q-30 -30 -98.5 -30t-100.5 32q-205 205 -205 231q0 7 20 7h31q56 0 83 -15.5t95.5 -84t78 -68.5t79.5 70t96 84t75 14zM1036 392v-35q0 -79 -36.5 -145t-90.5 -110q-127 -104 -318 -104h-36q-140 0 -296.5 78.5t-156.5 135.5
v25q0 56 61 56q33 0 112.5 -47.5t149.5 -71t185.5 -23.5t184.5 66t69 173.5t-113 183.5q-52 35 -244 114t-279 170t-87 240t117 253q117 103 315 103q124 0 273.5 -67t149.5 -128q0 -79 -67 -79q-9 0 -135 59.5t-235.5 59.5t-177 -55.5t-67.5 -131.5q0 -115 90 -183
q60 -45 250 -125t260 -145q122 -114 122 -267z" />
    <glyph glyph-name="scaron" unicode="&#x161;" horiz-adv-x="959" 
d="M213 1502h24q60 0 90.5 -25.5t86.5 -91.5t69 -66t73.5 71t89 91t82.5 20t54 -8t-90.5 -116.5t-120.5 -136t-83 -27.5h-8q-58 0 -86 25.5t-120 136t-92 116.5v5q0 6 31 6zM847 280.5q0 -121.5 -102 -200t-239 -78.5h-28q-113 0 -245.5 53t-132.5 96v19q0 63 54 63
q22 0 133 -49t203.5 -49t145.5 41.5t53 111.5t-78 120q-31 20 -187.5 81.5t-213.5 116.5q-78 76 -78 196t97.5 190t227.5 70h28q106 0 245 -59q83 -35 83 -93t-59 -58q-24 0 -119 37.5t-169.5 37.5t-124.5 -32.5t-50 -95t62 -108.5q40 -30 200 -92.5t227 -129.5t67 -188.5z
" />
    <glyph glyph-name="Ydieresis" unicode="&#x178;" horiz-adv-x="1192" 
d="M709 1725q0 58 66 58l19 3h23q15 -5 27 -5q42 0 42 -82v-15l-2 -14v-7q-4 -16 -4 -21q0 -60 -60 -60q-8 -2 -10 -2l-13 -2h-26q-15 5 -27 5q-35 0 -35 39l-2 6l-4 34v28l1 4v7q5 20 5 24zM401 1787h19q69 0 69 -44l1 -3l1 -4l4 -34v-22l-6 -38q0 -61 -63 -61l-20 -3h-22
l-3 1h-7l-26 6q-30 0 -30 41q-2 6 -2 9l-3 21v7l-1 10v4l1 4v7l2 14l5 27q0 58 81 58zM181 1448h21q64 0 101 -51t163 -314.5t139 -263.5q1 0 129.5 263.5t164.5 312.5t120 49q41 0 41 -18t-174 -374t-191.5 -416t-17.5 -313.5t-10.5 -285t-79.5 -31.5t-78 32q-3 11 -3 286
t-25 343t-90 196t-161 328.5t-96 228.5t47 28z" />
    <glyph glyph-name="Zcaron" unicode="&#x17d;" horiz-adv-x="1173" 
d="M884 1845q18 0 18 -9q0 -16 -217 -233q-32 -32 -87 -32h-8q-57 0 -94 34q-214 196 -214 228q0 11 34 11l15 2h24q62 0 123 -61q102 -102 113.5 -102t55.5 44q120 120 180 120h23q16 -2 34 -2zM133 1394q0 52 62 52l31 -2q78 -5 163 -5l241 3q337 0 381 -6.5t44 -40.5
q0 -71 -44.5 -144.5t-172.5 -260.5q-516 -754 -516 -785.5t60 -37.5t330 -6t313 -14.5t43 -86.5v-27q0 -24 -33 -24h-29l-31 3l-63 5q-26 2 -100 2l-241 -1q-338 0 -407.5 9.5t-69.5 55.5q0 59 42 127t366 542t324 516q0 33 -305 33t-346.5 12.5t-41.5 80.5z" />
    <glyph glyph-name="zcaron" unicode="&#x17e;" horiz-adv-x="979" 
d="M727 1523h24q52 0 52 -12q0 -53 -218 -251q-34 -31 -80 -31h-8q-56 0 -88 32q-216 216 -216 247q0 12 33 12l16 2h32q46 0 134.5 -88.5t91.5 -88.5l106 106q72 72 121 72zM842 22l-173 8h-106l-53 -1h-53q-290 0 -313 3q-49 6 -49 49q0 63 280 439t280 387
q0 25 -229.5 25t-266.5 12.5t-37 87.5q0 38 50 38l174 -8l211 2q243 0 262 -2q54 -6 54 -44q0 -55 -33.5 -105t-279.5 -380.5t-246 -343.5q0 -27 249.5 -27t289 -13.5t39.5 -88.5q0 -38 -29 -38h-21z" />
    <glyph glyph-name="florin" unicode="&#x192;" horiz-adv-x="1089" 
d="M812 898q0 -41 -87 -103t-120 -154q-18 -50 -69.5 -369.5t-96 -408.5t-122 -135t-165.5 -46t-88 48q0 39 13.5 59.5t71.5 36.5t95 48.5t61 95.5t69 318.5t45 358.5q0 40 -39.5 119t-39.5 99t49 64t77 101t64 183q36 125 80 183q87 114 240 114h29q128 0 128 -67
q0 -37 -27 -55q-8 -4 -102 -16q-208 -25 -208 -294q0 -70 71 -116.5t71 -63.5z" />
    <glyph glyph-name="circumflex" unicode="&#x2c6;" horiz-adv-x="898" 
d="M445 1540h15q44 0 79 -32q219 -201 219 -247v-4q0 -12 -47 -12l-16 -2h-8l-8 1q-58 0 -122 69q-97 105 -109 105t-92.5 -87.5t-142.5 -87.5h-16l-8 1q-45 0 -45 12t24 38l59 63q22 24 28.5 30.5t51.5 60t56 61.5q40 31 82 31z" />
    <glyph glyph-name="caron" unicode="&#x2c7;" horiz-adv-x="997" 
d="M230 1528h24q56 0 146 -97.5t102.5 -97.5t96 97.5t147.5 97.5h8q59 0 59 -18q0 -42 -223 -265q-41 -41 -90.5 -41t-92.5 43q-220 220 -220 265q0 16 43 16z" />
    <glyph glyph-name="uni02C9" unicode="&#x2c9;" horiz-adv-x="999" 
d="M818 1387v-68q0 -37 -25 -37h-161l-23 -1h-223l-23 -1h-146q-36 0 -36 27v75q0 31 325 31l192 2h69q51 0 51 -28z" />
    <glyph glyph-name="breve" unicode="&#x2d8;" horiz-adv-x="883" 
d="M429 1240q-105 0 -202.5 75t-97.5 165v8q0 18 40 18h8q53 0 89 -56.5t79.5 -76.5t123 -20t138 76t115.5 76q34 0 34 -15v-7q0 -84 -109 -176q-77 -65 -171 -65l-19 -2h-28z" />
    <glyph glyph-name="dotaccent" unicode="&#x2d9;" horiz-adv-x="891" 
d="M354 1419q0 57 89 57h4l3 -1l30 -3q4 -1 7 -1q52 0 52 -61q2 -8 2 -12l2 -15v-36l-1 -3l-3 -27q-1 -4 -1 -7q0 -55 -53 -55l-3 -1l-4 -1l-27 -3h-18l-36 6q-45 0 -45 59l-2 8v7l-2 20v23l1 4v8l4 26q1 4 1 8z" />
    <glyph glyph-name="ring" unicode="&#x2da;" horiz-adv-x="873" 
d="M436 1238h-33q-64 0 -124 46.5t-60 119.5v6q0 71 61 125.5t147 54.5h13q78 0 134 -50t56 -111v-23q0 -54 -57 -111t-137 -57zM537 1426q0 32 -33 58.5t-73 26.5h-8q-41 0 -76 -28t-35 -63v-16q0 -28 27.5 -55.5t51.5 -27.5l24 -4h23l21 4q21 0 48 27t27 44l3 15v19z" />
    <glyph glyph-name="ogonek" unicode="&#x2db;" horiz-adv-x="815" 
d="M274 -172q0 54 55.5 122t90.5 68h25q42 0 42 -18q1 -7 -17 -31q-64 -88 -65 -142q0 -94 134 -94q69 0 69 -48v-19q0 -41 -101 -41h-7l-7 1h-7q-102 0 -158 45.5t-56 121.5v14q2 14 2 21z" />
    <glyph glyph-name="tilde" unicode="&#x2dc;" horiz-adv-x="907" 
d="M309 1481h26q51 0 133.5 -46.5t122.5 -46.5t81 44.5t69 44.5q52 0 52 -40v-14q0 -43 -65.5 -98.5t-119.5 -55.5h-33q-46 0 -129.5 47t-124 47t-82 -45t-69.5 -45q-54 0 -54 45q0 51 85 123q47 40 108 40z" />
    <glyph glyph-name="hungarumlaut" unicode="&#x2dd;" horiz-adv-x="908" 
d="M853 1549v-3q0 -14 -24.5 -38.5t-111 -123t-102 -112.5t-57.5 -14h-20q-34 0 -34 12v3q0 9 27 51l14 21q77 140 118 180.5t96 40.5h29l33 -4q32 0 32 -13zM236 1260h-25q-32 0 -32 12v3q0 10 70.5 123.5t95.5 141.5t88 28h20l24 -2l23 -4q22 0 22 -11v-4q0 -11 -121 -149
t-165 -138z" />
    <glyph glyph-name="uni03A9" unicode="&#x3a9;" horiz-adv-x="1574" 
d="M1424 102q0 -40 -29 -57q-53 -30 -243 -30h-46q-120 0 -153 21.5t-33 87t109 215t151 256.5t42 228.5t-32 216.5q-100 293 -405 293q-189 0 -308 -143.5t-119 -387.5q0 -207 172 -443q115 -159 115 -246q0 -59 -42 -77t-186.5 -18t-222.5 24q-41 13 -41 76q0 47 108 47
l86 -2q106 0 106 39q0 21 -87 134q-182 237 -183 515q0 275 181 455q77 77 185.5 124t217.5 47h49q242 0 411.5 -169.5t169.5 -444.5q0 -165 -52.5 -290.5t-141.5 -236t-89 -152.5q0 -22 90 -22l168 9q52 0 52 -69z" />
    <glyph glyph-name="uni03BC" unicode="&#x3bc;" horiz-adv-x="1248" 
d="M264.5 -351q-56.5 0 -71 37t-14.5 105.5t2.5 147.5t3.5 111l7 192l1 65l1 32l1 98l5 228q0 280 17 351q10 40 74 40t75 -25.5t11 -184.5l-2 -99l-3 -65q-4 -132 -4 -201q0 -185 53.5 -257.5t147 -72.5t157 46.5t93.5 123.5t42 332t22 307q15 76 68 76q69 0 84 -40
q3 -8 3 -90l-15 -509q0 -85 20 -167q20 -80 20 -112q0 -66 -91 -67q-39 0 -73 31.5t-50.5 31.5t-57.5 -22.5t-106.5 -46t-177.5 -23.5l-92 9q-39 0 -49 -142.5t-27.5 -191t-74 -48.5z" />
    <glyph glyph-name="pi" unicode="&#x3c0;" horiz-adv-x="1292" 
d="M692 1053h62l30 -1l182 1h30q98 0 130 -19.5t32 -52.5v-23q0 -35 -61.5 -74t-72.5 -70q-22 -61 -22 -288.5t16 -284.5q3 -9 27.5 -65.5t24.5 -86.5q0 -51 -80 -51q-52 0 -80 30t-47 86q-35 103 -35 354l4 124q3 93 3 159.5t-48 89.5t-150 23t-128 -11t-38 -52t-32 -342
t-31 -362q-17 -95 -81 -95q-59 0 -71 26q-4 9 -4 45t16 218q15 171 15 321v19q0 158 -86 173q-47 9 -63 22.5t-16 57.5t22 66q63 63 537 63h15z" />
    <glyph glyph-name="endash" unicode="&#x2013;" horiz-adv-x="1104" 
d="M1028 607v-38q0 -35 -14.5 -42.5t-98.5 -7.5h-22l-10 1h-480l-43 -1h-218q-63 0 -63 34v58q0 32 45 36.5t405 4.5h32l11 -1l413 -2q43 0 43 -42z" />
    <glyph glyph-name="emdash" unicode="&#x2014;" horiz-adv-x="1781" 
d="M1716 613v-32q0 -46 -33 -50.5t-803 -4.5h-413l-36 -1h-178l-72 -1h-35q-79 0 -79 45v32q0 53 51 53l1090 4h412q96 0 96 -45z" />
    <glyph glyph-name="quoteleft" unicode="&#x2018;" horiz-adv-x="666" 
d="M461 1489h13q20 0 20 -27v-4l-1 -5q0 -17 -27 -51q-65 -81 -65 -158q0 -23 25.5 -40t31.5 -29q24 -48 24 -110t-19 -79t-60 -17h-34q-59 0 -80.5 24.5t-21.5 111.5v68q0 107 42.5 180t90 104.5t61.5 31.5z" />
    <glyph glyph-name="quoteright" unicode="&#x2019;" horiz-adv-x="665" 
d="M202 969h-13q-22 0 -22 25v14q0 17 23 42.5t49.5 65t26.5 80t-24 58.5t-28 26q-20 40 -20 78v46q2 14 2 22q0 64 88 64h27q47 0 69 -15.5t22 -55.5l1 -7l1 -8l1 -22v-60l-2 -23l-2 -30q0 -74 -45.5 -152t-93.5 -113t-60 -35z" />
    <glyph glyph-name="quotesinglbase" unicode="&#x201a;" horiz-adv-x="594" 
d="M393 48q0 -82 -65 -193t-118 -111h-12q-28 0 -28 44q0 6 21 39.5t38.5 68t17.5 62.5t-12.5 44.5t-21 33.5t-8.5 94.5t15 102.5t60 25h37q83 0 83 -60v-56l-1 -7l-3 -51q-3 -21 -3 -36z" />
    <glyph glyph-name="quotedblleft" unicode="&#x201c;" horiz-adv-x="950" 
d="M858 1476v-15q0 -16 -25 -47q-67 -83 -67 -161q0 -25 24.5 -41.5t40 -42t15.5 -106.5t-65 -81l-13 -2h-34q-62 0 -80 25q-19 27 -19 91v6l-2 37v38q0 111 61.5 216t131.5 105h13q19 0 19 -22zM495 1475v-14q0 -21 -22 -45q-70 -78 -70 -135.5t30 -72.5q21 -14 26 -24
q24 -48 24 -109t-19 -78t-59 -17h-34q-45 0 -70.5 18t-25.5 73q-3 22 -3 30l-2 37v30l1 8v22l2 22q1 8 1 14q0 90 71 177t124 87q26 0 26 -23z" />
    <glyph glyph-name="quotedblright" unicode="&#x201d;" horiz-adv-x="951" 
d="M724 1264q0 -89 -75.5 -190t-128.5 -101h-6q-22 0 -22 25v14q0 17 23 42.5t49 64.5t26 101q0 21 -22 37.5t-35 40t-13 87.5t16.5 85.5t73.5 21.5h20q58 0 77 -16.5t19 -55.5l2 -14l1 -23v-52l-1 -7q0 -8 -1 -19l-2 -22t-1 -19zM162 975h-12q-22 0 -22 25v9q0 2 49.5 76.5
t49.5 136.5q0 20 -22.5 36.5t-35.5 42.5t-13 85t14 82t56 23l14 2h34q12 -2 20 -2q68 0 68 -70l2 -14l1 -23v-59l-2 -23l-2 -29q0 -96 -76 -197t-123 -101z" />
    <glyph glyph-name="quotedblbase" unicode="&#x201e;" horiz-adv-x="894" 
d="M729 41q0 -76 -63.5 -184.5t-113.5 -108.5h-12q-30 0 -30 36v10q0 10 18 34q58 79 58 149q0 4 -32 62q-10 18 -10 99.5t17.5 101.5t65.5 20h19q91 0 91 -56v-70l-1 -7l-3 -43q-4 -28 -4 -43zM355 49q0 -83 -63.5 -192t-114.5 -109h-12q-30 0 -30 36v10q0 9 17 32
q59 80 59 151q1 5 -21 43q-22 40 -22 74v41l1 7v14l2 21q1 7 1 14q0 69 73 69h31q86 0 86 -62v-56l-1 -7l-3 -51q-3 -21 -3 -35z" />
    <glyph glyph-name="dagger" unicode="&#x2020;" horiz-adv-x="1102" 
d="M749 1054q81 0 103.5 -12t22.5 -50v-19q0 -35 -24.5 -51t-112 -23.5t-103 -52t-15.5 -493.5t-5 -476q-8 -44 -64 -44t-63 34q-11 51 -11 297v447l2 49v72q0 116 -37 145q-22 17 -90.5 21t-97 20t-28.5 65q0 69 90 69l39 2h39q57 0 71 18t14 87l-5 173q0 94 11.5 112
t63.5 18t64.5 -13.5t12.5 -132.5l-6 -173q0 -65 30 -80q18 -9 99 -9z" />
    <glyph glyph-name="daggerdbl" unicode="&#x2021;" horiz-adv-x="1110" 
d="M626 -108q0 -109 -46 -109h-26q-48 0 -59.5 27.5t-11.5 156.5l2 64q1 33 1 82t-25 66.5t-87.5 29.5t-84.5 34.5t-22 73.5q0 26 78.5 49t95.5 61q46 102 46 401q0 70 -26 88q-13 9 -90 14t-89 9q-51 16 -51 64t18 63t112 15t109.5 18.5t15.5 74.5l-6 192q0 101 54 101h26
q51 0 60.5 -25t9.5 -93l-3 -96q-2 -65 -2 -105.5t17.5 -52.5t103 -12t108.5 -14t23 -61t-38 -63q-12 -5 -95 -12t-102 -28t-19 -123q0 -236 38 -345q16 -46 69 -61q19 -6 52.5 -13t38.5 -11q21 -14 21 -54t-21 -57t-88 -29.5t-89.5 -32.5t-22.5 -126l2 -64q3 -96 3 -97z" />
    <glyph glyph-name="bullet" unicode="&#x2022;" horiz-adv-x="918" 
d="M702 697v-27q0 -113 -74 -187t-157 -74h-23q-85 0 -156 77t-71 179v45q0 97 70.5 174t151.5 77h31q85 0 156.5 -77.5t71.5 -186.5z" />
    <glyph glyph-name="ellipsis" unicode="&#x2026;" horiz-adv-x="1768" 
d="M1363 228q0 76 78 76q8 2 12 2l16 2h20l4 -1l26 -3q4 -1 7 -1q41 0 41 -37q3 -9 3 -11l3 -23v-9l1 -12v-13l-1 -4v-13l-4 -33l-4 -21q0 -60 -75 -60q-8 -2 -12 -2l-20 -2h-16l-19 2l-21 4q-39 0 -39 44l-1 4l-1 3l-3 32v34l1 4l3 29q1 4 1 9zM979 136q0 -74 -97 -74h-23
l-4 1h-7l-33 6q-37 0 -37 41q-3 12 -3 16l-3 24v16l-1 13v5l1 4v8l5 42q0 67 72 67q8 2 12 2l16 2h16l3 -1q81 0 81 -43l2 -8l1 -3l3 -24v-8l1 -13v-26l-1 -4l-3 -34q-1 -4 -1 -9zM190 238q0 68 70 68l23 3h23l23 -3l22 -4q40 0 40 -47q2 -8 2 -12l4 -42v-23l-1 -4l-3 -34
q-1 -4 -1 -8q0 -67 -66 -67l-16 -3h-7l-12 -1h-8l-4 1q-86 0 -86 47q-3 9 -3 11l-4 33v8l-1 13v18l1 4l3 34q1 4 1 8z" />
    <glyph glyph-name="perthousand" unicode="&#x2030;" horiz-adv-x="2152" 
d="M185 1086v82q0 141 76.5 236.5t181.5 95.5h20q106 0 172 -96t66 -237v-35q0 -155 -73.5 -255.5t-176.5 -100.5h-29q-95 0 -166 88.5t-71 221.5zM1310 1465q0 -37 -848 -1376q-48 -75 -86 -75h-17q-49 0 -49 19q0 29 155.5 270t218 346.5t118 191t127.5 203t103.5 166.5
t113.5 183q55 90 98 90h17q49 0 49 -18zM1566 413q0 120 75.5 214.5t180.5 94.5h10l10 -1q107 0 171.5 -97t64.5 -236v-47q0 -137 -71 -240.5t-178 -103.5h-30q-110 0 -172.5 100t-62.5 222v59q2 24 2 35zM1131 728h29q98 0 164.5 -90.5t66.5 -231.5v-59q0 -146 -73.5 -246
t-191.5 -100l-9 1q-98 0 -164.5 90.5t-66.5 219.5v71q0 139 70.5 242t174.5 103zM424 891h23q47 0 91 63t44 151l1 7l1 8l1 23v38q0 78 -31 139.5t-84 61.5h-23q-61 0 -99.5 -77t-38.5 -167v-46q0 -79 30.5 -140t84.5 -61zM1815 113h17q59 0 95 72t36 153v61q0 101 -41 154
t-92 53l-5 -1q-61 0 -97 -72t-36 -160v-31l1 -7l1 -23l2 -30q0 -61 38 -115t81 -54zM1129 113h22q52 0 89.5 69t37.5 170v23l-1 7v16l-2 29q0 65 -46 134q-29 44 -84 44l-6 -1q-48 0 -88 -57t-40 -129q-4 -30 -4 -37v-53q0 -81 33.5 -148t88.5 -67z" />
    <glyph glyph-name="guilsinglleft" unicode="&#x2039;" horiz-adv-x="712" 
d="M512 1006q47 0 47 -41.5t-136 -213.5t-136 -190l149 -189q124 -157 124 -193q0 -49 -52 -49q-34 0 -208 208.5t-174 221.5t209 278q133 168 167 168h10z" />
    <glyph glyph-name="guilsinglright" unicode="&#x203a;" horiz-adv-x="712" 
d="M159 175q1 35 139 211t138 181t-139 181t-139 219v9q0 30 46 31q33 0 203 -215q170 -216 170 -222t-171 -222t-197 -217h-9q-41 0 -41 44z" />
    <glyph glyph-name="fraction" unicode="&#x2044;" horiz-adv-x="518" 
d="M736 1457q0 -41 -799 -1417q-49 -84 -98 -84h-17q-42 0 -42 23q0 12 35.5 71.5t159.5 280.5t208 367q83 146 113 199q30 55 70 125q137 238 174 307l45 80q43 70 91 70h17q43 0 43 -22z" />
    <glyph glyph-name="Euro" unicode="&#x20ac;" horiz-adv-x="1258" 
d="M883 195l179 13q45 0 45 -21q0 -72 -90.5 -124.5t-220.5 -52.5h-42q-72 0 -162 32q-177 64 -277 250q-12 23 -47.5 98t-48.5 92t-49.5 43t-36.5 61t49 67t49 87q0 38 -61 55.5t-61 54.5t69 89q34 25 114 155q80 132 161 196q161 128 350 128q97 0 177.5 -36.5t80.5 -97.5
q0 -42 -53 -42q-10 0 -74 11t-148 11t-152 -46q-94 -63 -94 -147q0 -46 66 -70q42 -15 171.5 -21t129.5 -50t-70 -68q-37 -12 -192.5 -22t-196.5 -19q-65 -15 -65 -58q0 -56 42 -75q23 -11 150.5 -17.5t169.5 -19.5q62 -19 62 -55q0 -57 -140 -80q-77 -13 -111 -36
q-60 -40 -60 -80t33 -89.5t109 -82.5t245 -33z" />
    <glyph glyph-name="trademark" unicode="&#x2122;" horiz-adv-x="1662" 
d="M835 1440h23q58 0 105 -88q15 -28 91.5 -221.5t87.5 -193.5t86 199t111 250.5t119 51.5q30 0 38.5 -44t8.5 -244t6.5 -268.5t6.5 -81.5v-22q0 -40 -44 -40h-15q-57 0 -57 321q0 187 -16 187t-103.5 -216.5t-93.5 -226.5q-19 -32 -60 -32q-34 0 -130.5 238.5t-107.5 238.5
q-20 0 -20 -192t-14 -254.5t-49 -62.5q-48 0 -48 54v22l11 153l3 197q0 223 10 249t51 26zM497 1350q-65 0 -73 -29t-8 -314t-2 -290q-7 -18 -54 -18h-11q-37 0 -41 35q-2 17 -2 66l2 68v137q0 299 -11.5 321.5t-92 22.5t-80.5 48v24q0 31 25.5 35t218.5 4l65 1h76
q94 0 94 -46q0 -63 -64 -63l-21 -2h-21z" />
    <glyph glyph-name="Omega" unicode="&#x2126;" horiz-adv-x="1509" 
d="M1086 184q0 -20 96 -20q27 0 89 5l82 7q55 0 55 -58t-21 -73q-47 -33 -245 -33h-93q-91 0 -125.5 19t-34.5 87q0 47 116 209.5t141 220.5q48 112 48 256q0 258 -123.5 399.5t-328.5 141.5q-89 -1 -170 -43q-253 -133 -253 -512q0 -118 42 -227q19 -50 138 -224.5
t119 -245.5q0 -38 -31 -59.5t-155 -21.5h-93q-145 0 -200 29q-31 16 -31 58t15 55.5t62 13.5l85 -4q30 -1 93 -1t63 34q0 11 -84 109t-128 190q-77 162 -77 359q0 112 40.5 226.5t122 208.5t200 146t228.5 52h49q275 0 445 -197q154 -178 154 -471q0 -258 -205 -504
q-85 -102 -85 -132z" />
    <glyph glyph-name="partialdiff" unicode="&#x2202;" horiz-adv-x="1123" 
d="M361 1267q-39 0 -39 42t81 82.5t165 40.5h23q93 0 171 -48q223 -134 223 -530v-4v-52q-1 -146 -41 -296q-79 -293 -245 -406q-111 -76 -214 -76h-24q-137 0 -219 93.5t-82 236.5v25q0 108 43 209.5t109 171.5q130 139 324 139h3q47 0 106 -14l38 -9q60 0 60 124.5
t-83.5 216.5t-222.5 92q-35 0 -100.5 -19t-75.5 -19zM347 397v-44q0 -95 36.5 -156t90.5 -61h15q88 0 196 149q155 215 155 355v32q0 79 -41.5 127.5t-133.5 48.5q-30 3 -39 3l-19 2h-17l-8 -1q-87 0 -151 -128q-84 -168 -84 -327z" />
    <glyph glyph-name="Delta" unicode="&#x2206;" horiz-adv-x="1327" 
d="M237 27q-104 0 -104 34.5t62 216.5q288 844 396 1100q29 70 78 70h17q40 0 85 -120q424 -1131 424 -1239q0 -45 -92 -52q-49 -4 -425 -4h-39l-58 -1h-39l-58 -1h-38l-152 -3l-19 -1h-38zM387 159h51l12 1l204 1q315 0 315 34v12q0 7 -36.5 124.5t-46.5 146.5l-18 58
q-9 29 -20.5 62.5t-17.5 52.5l-14 44l-4 15l-10 29l-9 29q-9 29 -19 58t-19 58l-18 59l-10 29l-9 29q-9 29 -15.5 48t-27.5 86t-23.5 67t-71.5 -214.5t-164.5 -491.5t-95.5 -303v-10q0 -24 67 -24z" />
    <glyph glyph-name="product" unicode="&#x220f;" horiz-adv-x="1506" 
d="M412 505q0 -340 8 -428l5 -43l7 -42q6 -41 6 -87.5t-38.5 -86t-85.5 -39.5t-83 34.5t-36 73t11 77.5l12 36l11 37l8 41q10 79 10 281l-4 189v298q0 176 -13 260t-54 172.5t-41 117.5q0 64 93 87q70 17 617 17l143 1h95q284 0 284 -91q0 -33 -46 -135t-54.5 -168
t-8.5 -279v-309l-2 -95q-1 -47 -1 -184.5t26.5 -230.5t26.5 -126t-19 -57q-39 -48 -106 -48q-35 0 -80.5 39.5t-45.5 82t8 89.5l14 83q11 88 11 573l4 380q0 238 -43 293q-31 40 -285 40t-307 -41t-53 -286l6 -237v-289z" />
    <glyph glyph-name="summation" unicode="&#x2211;" horiz-adv-x="1365" 
d="M1006 1500q217 0 217 -101q0 -50 -13.5 -64.5t-38 -14.5t-86.5 9.5t-135.5 19t-230.5 9.5l-84 2h-85q-126 0 -126 -46q0 -35 220.5 -328t220.5 -328q0 -21 -235.5 -333.5t-235.5 -375.5q0 -43 162 -43q360 0 540 42q54 12 88 12t55 -16t21 -92q0 -46 -58 -66
q-90 -31 -254 -31l-43 -1q-43 -1 -85 -1l-43 -1q-43 -1 -87 -1l-302 -2h-43q-102 0 -151 26t-49 92.5t261.5 408t261.5 367t-254 362.5t-254 378q0 73 45 96t245 23h172l43 -1l257 -3z" />
    <glyph glyph-name="minus" unicode="&#x2212;" horiz-adv-x="1257" 
d="M118 620v46q0 38 40 38h939q42 0 42 -26v-56q0 -39 -98 -39h-823q-100 0 -100 37z" />
    <glyph glyph-name="uni2219" unicode="&#x2219;" horiz-adv-x="601" 
d="M430 656q0 -126 -88 -126q-12 -3 -13 -3l-17 -1h-23l-4 1h-9q-8 2 -26.5 2t-44 21.5t-25.5 66.5q-2 8 -2 13l-2 22v19l4 31q0 42 25.5 63.5t58.5 21.5q12 3 17 3l22 2h4l5 -1h9l17 -2q44 0 66 -26t22 -62l3 -18v-9l1 -14v-4z" />
    <glyph glyph-name="radical" unicode="&#x221a;" horiz-adv-x="1333" 
d="M658 -49q-53 0 -122 94q-28 38 -139 264.5t-117 236.5q-28 48 -73 48l-24 -6q-41 -11 -49 -11q-52 0 -52 57q0 35 38 58q93 57 176 57q45 0 75 -42q10 -14 83.5 -164t116.5 -220t83 -70q12 0 139.5 410t210.5 602.5t167 311.5q48 68 93 68t45 -33.5t-107 -238.5
t-159.5 -357t-160 -518.5t-142 -456.5t-82.5 -90z" />
    <glyph glyph-name="infinity" unicode="&#x221e;" horiz-adv-x="1582" 
d="M173 635v39v4q0 59 31 120q86 172 303 172q120 0 244 -119q77 -74 88 -74q11 1 34 27q150 173 305 173h2h40q122 0 207.5 -93t85.5 -228t-89 -228t-214 -93h-38q-121 0 -242 115q-89 86 -95 86t-66.5 -63t-128 -97.5t-174.5 -34.5t-200 86t-93 208zM1341 653v23
q0 79 -54.5 139.5t-138.5 60.5h-7q-76 0 -153 -69q-111 -100 -111 -152.5t115 -155.5q66 -59 139 -59h13q79 0 138 65.5t59 147.5zM479 465h21q69 0 172 84.5t103 103.5v5q0 47 -118 116t-163 69h-14l-7 -1q-73 0 -144 -58t-71 -117v-31q0 -65 73 -118t148 -53z" />
    <glyph glyph-name="integral" unicode="&#x222b;" horiz-adv-x="1031" 
d="M595 883v-645q0 -420 -168 -516q-63 -36 -135 -36t-113 28t-41 60t19 58.5t43.5 26.5t63.5 -10.5t60.5 -10.5t43.5 21q46 44 56 117q10 74 11 696v32q0 593 37 702q73 217 268 217q88 0 132 -40q19 -17 19 -44.5t-19.5 -55t-51.5 -27.5l-122 17q-18 0 -50 -30.5
t-42.5 -96.5t-10.5 -463z" />
    <glyph glyph-name="approxequal" unicode="&#x2248;" horiz-adv-x="1284" 
d="M422 998h38q77 0 229 -79t219 -79t125 49q100 84 112 84q47 0 47 -66.5t-96 -138.5t-175 -72h-38q-71 0 -229 79t-224 79t-122 -47q-100 -83 -112 -83q-47 0 -47 65.5t95 137t178 71.5zM423 605h38q71 0 229 -79t225 -79t140 65t93 65q47 0 47 -66t-95.5 -137.5
t-190.5 -71.5l-13 1h-12q-78 0 -230 79t-219.5 79t-126.5 -50q-99 -83 -111 -83q-47 0 -47 66t96.5 138.5t176.5 72.5z" />
    <glyph glyph-name="notequal" unicode="&#x2260;" horiz-adv-x="1260" 
d="M1121 432q0 -53 -34 -64t-245.5 -11t-257.5 -27.5t-90.5 -123.5t-52.5 -105q-27 -31 -66 -31q-53 0 -53 49q0 27 26.5 92t26.5 69q0 39 -59 52q-15 3 -74.5 8.5t-81 22t-21.5 61t59 61.5q32 9 161.5 9t173.5 49q83 92 83 175q0 16 -198.5 16t-238.5 13t-40 67.5t38 64
t244 9.5t252 27t97 141.5t93 114.5q70 0 70 -35.5t-28.5 -102t-28.5 -81.5q0 -43 128 -46q63 -2 80 -9q37 -15 37 -80q0 -44 -65 -59q-30 -7 -153 -7t-163 -32q-22 -17 -61.5 -90t-39.5 -104q0 -14 203 -14t232 -10q47 -16 47 -69z" />
    <glyph glyph-name="lessequal" unicode="&#x2264;" horiz-adv-x="1214" 
d="M1038 269q-16 0 -94 39t-410.5 192.5t-358.5 167.5q-58 31 -58 80t53 79q128 73 720 338q19 9 74.5 36.5t68.5 27.5h15q20 0 20 -57.5t-69.5 -102t-368 -178t-298.5 -144.5q0 -5 262.5 -119.5t368 -175t105.5 -122t-30 -61.5zM1090 70v-21q0 -41 -15.5 -53t-68.5 -12h-33
l-11 1l-56 2h-23l-44 2h-22l-23 1h-22l-45 2h-22l-22 1h-23l-56 2h-22l-22 1h-23l-11 1h-22l-56 2h-22l-34 1h-22l-11 1h-23l-144 6q-11 1 -22 1q-59 0 -59 66l1 10q0 43 14 54t58 11h45l770 -22q11 -1 22 -1q69 0 69 -56z" />
    <glyph glyph-name="greaterequal" unicode="&#x2265;" horiz-adv-x="1215" 
d="M177 270q-28 0 -28 58.5t78.5 103.5t360.5 174.5t282 139.5q0 2 -288.5 134.5t-362 176t-73.5 102.5v17q0 40 28 40t140 -60t134 -70l37 -17q114 -56 269.5 -123t260.5 -124q57 -31 57 -78.5t-68 -84.5t-442 -213t-385 -176zM198 2q-70 0 -70 35v45q0 36 22 41
q43 10 317 10l278 9l57 3l202 7h11q77 0 77 -43v-28q0 -43 -31 -50t-263 -7l-11 -1h-22l-23 -1h-23l-34 -1h-22l-188 -8l-75 -4q-11 -1 -21 -1l-32 -2h-21l-96 -4h-32z" />
    <glyph glyph-name="lozenge" unicode="&#x25ca;" horiz-adv-x="1194" 
d="M1035 722q0 -14 -60 -114t-99.5 -171.5t-72 -126.5t-79.5 -140q-100 -183 -137.5 -183t-136.5 180q-26 48 -166 287.5t-140 265.5q0 10 316 568q95 167 130.5 167t127.5 -168q46 -83 181.5 -317t135.5 -248zM585.5 1299q-2.5 0 -20 -37.5t-146.5 -284.5t-129 -255
t149 -294t151 -286t47.5 91t69.5 133t63 121l117 234q0 19 -128 256t-149.5 279.5t-24 42.5z" />
    </font>
</defs>
</svg>
