<?xml version="1.0" standalone="no"?>
<!DOCTYPE svg PUBLIC "-//W3C//DTD SVG 1.1//EN" "http://www.w3.org/Graphics/SVG/1.1/DTD/svg11.dtd" >
<svg xmlns="http://www.w3.org/2000/svg" xmlns:xlink="http://www.w3.org/1999/xlink" version="1.1">
<metadata>
Created by FontForge 20201107 at Thu Feb 18 22:55:40 2016
 By 
Copyright (c) 2011-2016 by Omnibus-Type (www.omnibus-type.com omnibus.type@gmail.com)
</metadata>
<defs>
<font id="Chivo-BoldItalic" horiz-adv-x="598" >
  <font-face 
    font-family="Chivo"
    font-weight="700"
    font-style="italic"
    font-stretch="normal"
    units-per-em="1000"
    panose-1="2 11 8 3 3 2 2 9 8 4"
    ascent="800"
    descent="-200"
    x-height="511"
    cap-height="686"
    bbox="-236 -250 1026 931"
    underline-thickness="50"
    underline-position="-100"
    slope="-8"
    unicode-range="U+0020-FB02"
  />
<missing-glyph horiz-adv-x="500" 
d="M500 700v-700h-500v700h500zM80 650l170 -255l170 255h-340zM220 350l-170 255v-510zM450 605l-170 -255l170 -255v510zM250 305l-170 -255h340z" />
    <glyph glyph-name="fi" unicode="fi" horiz-adv-x="641" 
d="M354 626q-18 4 -29 4q-28 0 -42.5 -12.5t-20.5 -36.5t-11 -70h120l-15 -100h-119q-36 -258 -57 -412q-24 -184 -189 -184q-26 0 -54.5 5.5t-44.5 14.5l12 91q11 -5 29.5 -9t30.5 -4q28 0 44.5 15.5t21.5 50.5q30 221 61 432h-60l13 100h61l9 63q12 81 56.5 117.5
t119.5 36.5q25 0 57 -5.5t50 -15.5l-12 -89q-13 4 -31 8zM626 720l-16 -115h-148l16 115h148zM450 511h146l-72 -511h-146z" />
    <glyph glyph-name="fl" unicode="fl" horiz-adv-x="642" 
d="M354 626q-18 4 -29 4q-28 0 -42.5 -12.5t-20.5 -36.5t-11 -70h120l-15 -100h-119q-36 -258 -57 -412q-24 -184 -189 -184q-26 0 -54.5 5.5t-44.5 14.5l12 91q11 -5 29.5 -9t30.5 -4q28 0 44.5 15.5t21.5 50.5q30 221 61 432h-60l13 100h61l9 63q12 81 56.5 117.5
t119.5 36.5q25 0 57 -5.5t50 -15.5l-12 -89q-13 4 -31 8zM479 720h146l-101 -720h-146z" />
    <glyph glyph-name=".notdef" horiz-adv-x="500" 
d="M500 700v-700h-500v700h500zM80 650l170 -255l170 255h-340zM220 350l-170 255v-510zM450 605l-170 -255l170 -255v510zM250 305l-170 -255h340z" />
    <glyph glyph-name=".null" horiz-adv-x="0" 
 />
    <glyph glyph-name="nonmarkingreturn" horiz-adv-x="333" 
 />
    <glyph glyph-name="space" unicode=" " horiz-adv-x="220" 
 />
    <glyph glyph-name="exclam" unicode="!" horiz-adv-x="290" 
d="M281 686l-109 -484h-97l29 484h177zM190 147l-21 -147h-146l21 147h146z" />
    <glyph glyph-name="quotedbl" unicode="&#x22;" horiz-adv-x="461" 
d="M102 686h118l-21 -147q-38 -100 -54 -138h-50l-14 138zM261 516q0 7 -2 23l21 147h119l-21 -147l-55 -138h-50q-4 54 -12 115z" />
    <glyph glyph-name="numbersign" unicode="#" horiz-adv-x="600" 
d="M198 494q24 67 31 85l42 117h97l-42 -117q-7 -18 -31 -85h130q24 67 31 85l42 117h96q-24 -68 -74 -202h98l-13 -92h-116l-49 -138h110l-13 -92h-132q-27 -78 -62 -172h-96q35 94 62 172h-131l-61 -172h-97l62 172h-103l13 92h124l50 138h-114l13 92h133zM343 263l50 138
h-132l-49 -138h131z" />
    <glyph glyph-name="dollar" unicode="$" horiz-adv-x="586" 
d="M418 483.5q1 5.5 1 11.5q0 29 -24 47t-67 18q-53 0 -84 -19.5t-31 -48.5t29.5 -43.5t93.5 -31.5q62 -16 101 -31.5t67 -47t28 -82.5q0 -111 -72 -170t-182 -66q0 -57 1 -86h-101l25 87q-86 7 -137.5 47.5t-51.5 116.5q0 14 2 30t4 21h135q0 -5 -2 -14t-2 -14
q0 -34 26 -52.5t76 -18.5q68 0 98.5 22t30.5 54q0 30 -29 44.5t-92 31.5q-60 15 -99 30.5t-67 48t-28 86.5q0 94 64 150t163 67q0 58 -1 87h101q-11 -37 -25 -86q84 -6 134.5 -45t50.5 -110q0 -20 -3 -41h-134q0 2 1 7.5z" />
    <glyph glyph-name="percent" unicode="%" horiz-adv-x="739" 
d="M70 0l516 686h80l-513 -686h-83zM271.5 371.5q-39.5 -35.5 -91.5 -35.5h-15q-47 0 -77 29.5t-30 73.5q0 15 16 124q7 52 45.5 87t94.5 35h15q47 0 76 -29.5t29 -73.5q0 -13 -15 -124q-8 -51 -47.5 -86.5zM246.5 516.5q7.5 49.5 7.5 56.5q0 23 -8.5 36t-32.5 13
q-21 0 -37 -14t-19 -35q-3 -18 -10.5 -68t-7.5 -56q0 -23 9.5 -36t33.5 -13q22 0 37 14t17 35q3 18 10.5 67.5zM614.5 34.5q-39.5 -35.5 -91.5 -35.5h-15q-47 0 -77 29.5t-30 73.5q0 15 16 124q7 52 45.5 87t94.5 35h15q47 0 76 -29.5t29 -73.5q0 -13 -15 -124
q-8 -51 -47.5 -86.5zM589.5 179.5q7.5 49.5 7.5 56.5q0 23 -8.5 36t-32.5 13q-21 0 -37 -14t-19 -35q-3 -18 -10.5 -68t-7.5 -56q0 -23 9.5 -36t33.5 -13q22 0 37 14t17 35q3 18 10.5 67.5z" />
    <glyph glyph-name="ampersand" unicode="&#x26;" horiz-adv-x="670" 
d="M359 574.5q-13 2.5 -23 2.5q-55 0 -86 -23t-31 -67q0 -30 23.5 -54.5t65.5 -24.5h122q12 29 23.5 54t21.5 46l14 31h102l-18 -131h94q-9 -72 -16 -116h-94q-15 -111 -41 -292h-272q-102 0 -167 40t-65 124q0 76 41 124t110 69q-42 17 -65 50t-23 79q0 67 34.5 114.5
t94.5 71.5t134 24q28 0 56 -5l-17 -121q-5 2 -18 4.5zM163 190q0 -39 30.5 -58t79.5 -19h111l25 179h-95q-151 0 -151 -102z" />
    <glyph glyph-name="quotesingle" unicode="'" horiz-adv-x="272" 
d="M77 516q0 7 -2 23l21 147h119l-21 -147l-24 -60q-20 -52 -31 -78h-50q-4 53 -12 115z" />
    <glyph glyph-name="parenleft" unicode="(" horiz-adv-x="326" 
d="M87 447.5q59 130.5 166 238.5h80q-86 -117 -136 -252t-50 -270q0 -85 18 -169t49 -152h-80q-52 70 -79 155t-27 178q0 141 59 271.5z" />
    <glyph glyph-name="parenright" unicode=")" horiz-adv-x="326" 
d="M230.5 81q-59.5 -132 -165.5 -238h-79q85 116 135 250t50 268q0 86 -17.5 171.5t-48.5 153.5h79q52 -70 79 -156t27 -179q0 -138 -59.5 -270z" />
    <glyph glyph-name="asterisk" unicode="*" horiz-adv-x="583" 
d="M434 339l-90 -60l-65 138l-101 -137l-74 59l122 119l-150 38l45 93l140 -63l9 160h99l-37 -160l161 62l16 -94l-163 -36z" />
    <glyph glyph-name="plus" unicode="+" horiz-adv-x="600" 
d="M563 308l-15 -106h-204l-28 -202h-105l28 202h-203l15 106h203l28 203h105l-28 -203h204z" />
    <glyph glyph-name="comma" unicode="," horiz-adv-x="277" 
d="M127 0h-63l21 147h146l-17 -123l-66 -168h-73z" />
    <glyph glyph-name="hyphen" unicode="-" horiz-adv-x="260" 
d="M261 336l-17 -128h-252l16 128h253z" />
    <glyph glyph-name="period" unicode="." horiz-adv-x="277" 
d="M221 147l-21 -147h-146l21 147h146z" />
    <glyph glyph-name="slash" unicode="/" horiz-adv-x="564" 
d="M-25 -171l490 857h105l-489 -857h-106z" />
    <glyph glyph-name="zero" unicode="0" horiz-adv-x="612" 
d="M497 106.5q-36 -54.5 -94.5 -85.5t-132.5 -31h-29q-60 0 -107.5 26.5t-74.5 73t-27 104.5q0 32 27 211l7 50q10 71 48 125.5t97 85t129 30.5h29q60 0 107.5 -27t74 -74t26.5 -106q0 -30 -17 -146l-17 -113q-10 -69 -46 -123.5zM405 298q26 180 26 192q0 34 -23.5 61.5
t-68.5 27.5q-56 0 -85.5 -32t-39.5 -97q-34 -227 -34 -252q0 -40 25 -65.5t66 -25.5q52 0 84 30t38 77z" />
    <glyph glyph-name="one" unicode="1" horiz-adv-x="612" 
d="M48 121h166l55 393h-167l13 89q57 4 131.5 28.5t141.5 59.5h53l-80 -570h163l-17 -121h-476z" />
    <glyph glyph-name="two" unicode="2" horiz-adv-x="612" 
d="M539 377.5q-38 -55.5 -89.5 -94t-125.5 -82.5q-44 -27 -66.5 -42.5t-31.5 -29.5h304l-17 -129h-503q0 71 34 125t82 91.5t125 86.5q61 38 95 63.5t57 57t23 68.5q0 36 -24 59t-67 23q-55 0 -89 -36t-34 -93h-138q3 40 18.5 92t78.5 105.5t188 53.5q73 0 122 -26.5
t72.5 -70.5t23.5 -97q0 -69 -38 -124.5z" />
    <glyph glyph-name="three" unicode="3" horiz-adv-x="612" 
d="M152 184q0 -37 27 -56t79 -19q63 0 100 28t37 84q0 45 -32 60t-86 15h-72l15 107h83q48 0 81.5 27t33.5 75q0 36 -25.5 54t-68.5 18q-45 0 -77 -23.5t-39 -65.5h-133q4 62 40.5 109.5t96 73t130.5 25.5h20q61 0 108 -21t73 -57.5t26 -83.5q0 -62 -34.5 -106.5
t-89.5 -68.5l-1 -5q47 -16 72.5 -50.5t25.5 -85.5q0 -69 -37.5 -121t-101 -79.5t-140.5 -27.5h-27q-107 0 -165 46.5t-58 123.5q0 20 5 45h136q-2 -11 -2 -21z" />
    <glyph glyph-name="four" unicode="4" horiz-adv-x="612" 
d="M403.5 515.5q28.5 51.5 47.5 96.5h64l-47 -334h92l-17 -118h-92l-22 -160h-143l22 160h-302l17 119q63 82 133 202t110 215h141q-25 -68 -75 -151t-105 -156.5t-92 -110.5h190l21 150q29 36 57.5 87.5z" />
    <glyph glyph-name="five" unicode="5" horiz-adv-x="612" 
d="M152 686h413l-18 -130h-297l-33 -151q67 48 140 48q92 0 141 -51t49 -135q0 -82 -36 -145t-101 -97.5t-147 -34.5h-15q-68 0 -117.5 25.5t-75.5 70t-26 100.5q0 22 2 33h137q-1 -5 -1 -14q0 -42 29 -68t70 -26q54 0 93 34.5t39 100.5q0 38 -26.5 65.5t-66.5 27.5h-4
q-63 0 -111 -52l-119 18z" />
    <glyph glyph-name="six" unicode="6" horiz-adv-x="612" 
d="M258.5 546q-35.5 -30 -41.5 -74l-14 -97q31 29 70 44t78 15q86 0 140.5 -47.5t54.5 -128.5q0 -80 -37.5 -141t-101.5 -94t-143 -33h-14q-62 0 -111.5 25.5t-77.5 71.5t-28 107q0 12 7.5 67.5t26.5 193.5q9 67 49.5 122t101.5 87t128 32h14q92 0 149.5 -50t57.5 -138
q0 -18 -3 -39h-138q1 6 1 17q0 38 -23.5 64t-64.5 26q-45 0 -80.5 -30zM400 244q0 39 -27 63.5t-69 24.5q-44 0 -81 -30t-41 -74q-3 -26 -3 -36q0 -39 27 -63.5t69 -24.5q44 0 81 30t41 74q3 25 3 36z" />
    <glyph glyph-name="seven" unicode="7" horiz-adv-x="612" 
d="M387 338q-87 -139 -107 -283q0 -4 -1 -10l-2 -12l-4 -33h-168q20 145 106.5 284t208.5 271h-325l19 131h496l-10 -72q-126 -137 -213 -276z" />
    <glyph glyph-name="eight" unicode="8" horiz-adv-x="612" 
d="M518.5 293q22.5 -30 22.5 -77q0 -70 -36 -121.5t-101 -78t-148 -26.5q-105 0 -167 44t-62 123q0 73 35 116.5t98 74.5l1 4q-34 24 -51 50t-17 66q0 70 35 122t95 79t132 27q93 0 150 -44t57 -123q0 -67 -28.5 -106t-80.5 -71l-1 -4q44 -25 66.5 -55zM260.5 554.5
q-30.5 -31.5 -30.5 -80.5q0 -33 22.5 -54t60.5 -21q49 0 79.5 31.5t30.5 80.5q0 32 -23 53.5t-60 21.5q-49 0 -79.5 -31.5zM210.5 266.5q-33.5 -33.5 -33.5 -88.5q0 -36 26.5 -57t67.5 -21q55 0 89 33.5t34 87.5q0 37 -26.5 58t-68.5 21q-55 0 -88.5 -33.5z" />
    <glyph glyph-name="nine" unicode="9" horiz-adv-x="612" 
d="M352.5 140q35.5 30 41.5 74l14 97q-31 -29 -70 -44t-78 -15q-86 0 -140.5 47.5t-54.5 128.5q0 80 37.5 141t101.5 94t143 33h14q62 0 111.5 -25.5t77.5 -71.5t28 -107q0 -12 -7.5 -67.5t-26.5 -193.5q-9 -67 -49.5 -122t-101.5 -87t-128 -32h-14q-92 0 -149.5 50
t-57.5 138q0 18 3 39h138q-1 -6 -1 -17q0 -38 23.5 -64t64.5 -26q45 0 80.5 30zM211 442q0 -39 27 -63.5t69 -24.5q44 0 81 30t41 74q3 26 3 36q0 39 -27 63.5t-69 24.5q-44 0 -81 -30t-41 -74q-3 -25 -3 -36z" />
    <glyph glyph-name="colon" unicode=":" horiz-adv-x="277" 
d="M246 511l-20 -148h-146l20 148h146zM195 147l-20 -147h-146l20 147h146z" />
    <glyph glyph-name="semicolon" unicode=";" horiz-adv-x="277" 
d="M257 511l-21 -148h-146l21 148h146zM102 0h-63l20 147h146l-17 -123l-66 -168h-73q17 48 53 144z" />
    <glyph glyph-name="less" unicode="&#x3c;" horiz-adv-x="599" 
d="M590 512l-16 -114l-410 -144l369 -144l-16 -113q-86 34 -159 64t-133 54q-126 52 -189 77l17 123z" />
    <glyph glyph-name="equal" unicode="=" horiz-adv-x="600" 
d="M68 415h508l-15 -106h-508zM38 199h508l-15 -106h-508z" />
    <glyph glyph-name="greater" unicode="&#x3e;" horiz-adv-x="600" 
d="M366 127q-141 -52 -231 -84t-127 -46l16 113l408 144q-58 22 -86 34q-188 72 -281 110l16 114l481 -197l-17 -123z" />
    <glyph glyph-name="question" unicode="?" horiz-adv-x="572" 
d="M198 201l9 62q5 31 25.5 54.5t60.5 55.5q45 37 67 64.5t23 66.5q0 31 -21.5 54.5t-59.5 23.5q-58 0 -82.5 -37t-26.5 -93h-141q0 72 34.5 127.5t95 86t136.5 30.5h22q63 0 108 -25.5t67.5 -67t22.5 -87.5q0 -51 -19.5 -89.5t-46 -63t-66.5 -52.5q-33 -24 -49 -39.5
t-19 -34.5l-5 -36h-135zM186 147h148q-14 -98 -20 -147h-148q14 98 20 147z" />
    <glyph glyph-name="at" unicode="@" horiz-adv-x="927" 
d="M681 229q-12 -87 -12 -83q0 -33 30 -33q38 0 66.5 42t43 105.5t14.5 126.5q0 128 -79 190t-218 62q-123 0 -218 -53.5t-149.5 -159t-54.5 -256.5q0 -133 70 -199t214 -66q36 0 89 9.5t81 22.5l-9 -63q-32 -11 -83.5 -19t-85.5 -8q-164 0 -253 78.5t-89 239.5
q0 166 62.5 286t175 183t258.5 63q164 0 260 -74t96 -227q0 -108 -33 -193t-90.5 -133t-127.5 -48q-47 0 -73 20t-30 62q-41 -41 -80 -61.5t-93 -20.5q-146 0 -146 125q0 72 43 111t116.5 52.5t183.5 13.5l3 24q3 18 3 27q0 25 -18.5 40.5t-58.5 15.5q-34 0 -54.5 -12.5
t-29.5 -28.5t-9 -26h-132q0 44 29.5 80t82.5 56.5t119 20.5h20q93 0 140 -33.5t47 -93.5q0 -47 -21 -165zM548 235q1 9 1 12q-92 0 -140.5 -19.5t-48.5 -61.5q0 -29 18 -40.5t53 -11.5q40 0 73.5 28t40.5 75q2 9 3 18z" />
    <glyph glyph-name="A" unicode="A" horiz-adv-x="686" 
d="M169 135l-67 -135h-148l345 686h184l152 -686h-162l-31 135h-273zM228 252h190l-54 269h-5q-74 -149 -131 -269z" />
    <glyph glyph-name="B" unicode="B" horiz-adv-x="645" 
d="M454 686q70 0 116.5 -41t46.5 -105q0 -78 -42 -122t-99 -59l-1 -7q47 -10 79.5 -42t32.5 -94q0 -60 -28.5 -109.5t-78 -78t-111.5 -28.5h-346l97 686h334zM439 437q26 29 26 66q0 32 -18 48.5t-48 16.5h-151l-22 -160h151q36 0 62 29zM413 149.5q26 25.5 26 71.5
q0 28 -19.5 49t-48.5 21h-162q-8 -63 -23 -167h162q39 0 65 25.5z" />
    <glyph glyph-name="C" unicode="C" horiz-adv-x="683" 
d="M522 62.5q-83 -72.5 -211 -72.5h-14q-118 0 -190 64.5t-72 182.5q0 13 4.5 49t14.5 106q13 95 59 163.5t118 104.5t161 36h14q109 0 175.5 -59t66.5 -169q0 -29 -4 -54h-147q2 13 4 39v4q0 55 -32 85.5t-85 30.5q-81 0 -118.5 -48t-51.5 -143l-5 -35q-13 -79 -13 -107
q0 -65 34 -96t95 -31q136 0 158 157h141q-19 -135 -102 -207.5z" />
    <glyph glyph-name="D" unicode="D" horiz-adv-x="686" 
d="M395 686q73 0 130.5 -29.5t90 -84.5t32.5 -129q0 -20 -4 -50.5t-14 -98.5q-21 -146 -112.5 -220t-249.5 -74h-245l97 686h275zM301 123q66 0 110 38.5t55 110.5l7 45q7 42 11 74.5t4 57.5q0 53 -34.5 83.5t-90.5 30.5h-106l-61 -440h105z" />
    <glyph glyph-name="E" unicode="E" 
d="M120 686h483l-35 -123h-314l-21 -150h293l-17 -123h-293l-23 -167h316v-123h-486z" />
    <glyph glyph-name="F" unicode="F" horiz-adv-x="563" 
d="M254 563l-23 -164h266l-17 -123h-266l-39 -276h-152l97 686h464l-34 -123h-296z" />
    <glyph glyph-name="G" unicode="G" horiz-adv-x="699" 
d="M492 77q-40 -42 -90 -64.5t-116 -22.5h-5q-73 0 -128.5 30t-86 86t-30.5 132q0 26 18 154q20 142 110 223t233 81h14q67 0 121.5 -25.5t85.5 -73.5t31 -113q0 -9 -3 -42h-146q1 9 1 26q0 54 -32.5 79.5t-85.5 25.5q-48 0 -83.5 -23t-53.5 -64q-22 -48 -36 -130t-14 -116
q0 -60 32.5 -93.5t89.5 -33.5q62 0 103.5 36.5t53.5 111.5h-155l16 112h300l-33 -237q-1 -7 -7 -50.5t-6 -85.5h-85q-8 31 -13 77z" />
    <glyph glyph-name="H" unicode="H" horiz-adv-x="691" 
d="M455 286h-237l-40 -286h-155l97 686h154l-39 -272h238l39 272h154l-97 -686h-154z" />
    <glyph glyph-name="I" unicode="I" horiz-adv-x="461" 
d="M436 686l-18 -123h-80l-61 -440h80l-18 -123h-316l18 123h81l61 440h-81l18 123h316z" />
    <glyph glyph-name="J" unicode="J" horiz-adv-x="527" 
d="M135 207q-3 -16 -3 -29q0 -28 18 -46.5t50 -18.5t55 20.5t27 53.5l70 499h151l-70 -503q-12 -92 -77 -142.5t-158 -50.5h-20q-52 0 -95.5 18t-70 53.5t-26.5 85.5q0 32 9 81h144q-1 -5 -4 -21z" />
    <glyph glyph-name="K" unicode="K" horiz-adv-x="660" 
d="M271 686l-44 -314l291 314h173l-119 -127l-153 -162l182 -397h-175l-124 278l-103 -99l-25 -179h-151l97 686h151z" />
    <glyph glyph-name="L" unicode="L" horiz-adv-x="533" 
d="M120 686h155l-79 -558h281v-128h-454z" />
    <glyph glyph-name="M" unicode="M" horiz-adv-x="967" 
d="M762 505h-5l-249 -505h-162l-107 505h-5l-71 -505h-140l97 686h249l96 -453h4l224 453h249l-97 -686h-154z" />
    <glyph glyph-name="N" unicode="N" horiz-adv-x="691" 
d="M268 316q-13 25 -25.5 52t-17.5 37l-4 -3l-57 -402h-141l97 686h131l171 -318q14 -25 23 -47q4 -8 9 -18.5t11 -22.5l3 3l57 403h141l-97 -686h-131z" />
    <glyph glyph-name="O" unicode="O" horiz-adv-x="708" 
d="M535 67.5q-96 -77.5 -246 -77.5q-73 0 -130.5 30.5t-90 87.5t-32.5 133q0 17 2 35t7 51l9 64q21 148 117 226t245 78q73 0 130.5 -30.5t90 -88t32.5 -133.5q0 -20 -3.5 -50.5t-13.5 -98.5q-21 -149 -117 -226.5zM494 317q7 42 11 74.5t4 57.5q0 57 -34.5 90.5t-90.5 33.5
q-74 0 -116 -47t-53 -136q0 -2 -7 -46q-5 -35 -8 -62t-3 -46q0 -57 34 -90t91 -33q67 0 110.5 41t54.5 118z" />
    <glyph glyph-name="P" unicode="P" horiz-adv-x="629" 
d="M177 0h-154l97 686h330q52 0 93 -22.5t64.5 -62.5t23.5 -90q0 -70 -30 -126t-84.5 -88t-125.5 -32h-177zM231 386h141q45 0 72 31t30 72q0 31 -21 52.5t-56 21.5h-141z" />
    <glyph glyph-name="Q" unicode="Q" horiz-adv-x="708" 
d="M578 99q-67 -74 -174 -98q6 -23 25.5 -39t57.5 -16q21 0 49 5.5t49 11.5t27 9l-12 -88q-6 -3 -27.5 -12t-57.5 -17t-77 -8q-93 0 -138 44t-49 103q-92 15 -148 80.5t-56 166.5q0 17 2 35t7 51l9 64q21 148 117 226t245 78q73 0 130.5 -30.5t90 -88t32.5 -133.5
q0 -20 -3.5 -50.5t-13.5 -98.5q-18 -121 -85 -195zM505 317q7 42 11 74.5t4 57.5q0 57 -34.5 90.5t-90.5 33.5q-74 0 -116 -47t-53 -136q0 -2 -7 -46q-5 -35 -8 -62t-3 -46q0 -57 34 -90t91 -33q67 0 110.5 41t54.5 118z" />
    <glyph glyph-name="R" unicode="R" horiz-adv-x="665" 
d="M176 0h-152l96 686h307q94 0 151 -34t57 -110q0 -67 -38 -120.5t-108 -66.5l-1 -7q36 -12 61 -47t25 -94l-4 -51l-3 -43q0 -60 38 -73l-4 -34q-35 -13 -89 -13q-50 0 -76 20.5t-26 72.5q0 13 4 47q4 32 4 43q0 53 -23 80.5t-62 27.5h-117zM448 431.5q27 26.5 27 66.5
q0 28 -19 46.5t-51 18.5h-150l-22 -158h150q38 0 65 26.5z" />
    <glyph glyph-name="S" unicode="S" horiz-adv-x="635" 
d="M499 56q-79 -66 -237 -66q-110 0 -180 44t-70 134q0 30 7 56h146q-5 -7 -5 -31q0 -37 29 -57.5t85 -20.5q72 0 107.5 22t35.5 63q0 33 -32.5 49.5t-99.5 32.5q-68 17 -111.5 35t-74.5 55t-31 99q0 109 83 167t217 58q104 0 169 -42.5t65 -127.5q0 -22 -4 -43h-145
q3 15 3 23q0 32 -27.5 50.5t-74.5 18.5q-58 0 -92.5 -19.5t-34.5 -55.5q0 -33 33 -49.5t101 -32.5q69 -17 112 -34t74 -53t31 -95q0 -114 -79 -180z" />
    <glyph glyph-name="T" unicode="T" horiz-adv-x="557" 
d="M306 0h-153l79 562h-195l18 124h542l-18 -124h-194z" />
    <glyph glyph-name="U" unicode="U" horiz-adv-x="673" 
d="M498 51q-79 -61 -197 -61h-28q-106 0 -167.5 51.5t-61.5 139.5q0 13 14.5 119.5t53.5 385.5h154q-66 -471 -66 -481q0 -42 28.5 -67.5t76.5 -25.5q53 0 89.5 30.5t43.5 78.5l65 465h154l-65 -468q-15 -106 -94 -167z" />
    <glyph glyph-name="V" unicode="V" horiz-adv-x="643" 
d="M535 686h148l-323 -686h-177l-128 686h162l87 -490h5z" />
    <glyph glyph-name="W" unicode="W" horiz-adv-x="972" 
d="M321 0h-171l-95 686h161l58 -449h5l108 262l77 187h155l58 -449h5l184 449h146l-290 -686h-169l-54 412h-6z" />
    <glyph glyph-name="X" unicode="X" horiz-adv-x="658" 
d="M234 360l-164 326h181l100 -210h4q122 150 163 210h167q-25 -31 -97.5 -123.5t-159.5 -200.5q54 -107 107.5 -214.5t73.5 -147.5h-181l-117 245h-4q-163 -207 -189 -245h-166z" />
    <glyph glyph-name="Y" unicode="Y" horiz-adv-x="637" 
d="M347 0h-154l37 263l-175 423h174l104 -272h5l182 272h158l-294 -423z" />
    <glyph glyph-name="Z" unicode="Z" horiz-adv-x="631" 
d="M0 49l388 514h-292l18 123h515l-7 -50l-387 -513h323l-18 -123h-546z" />
    <glyph glyph-name="bracketleft" unicode="[" horiz-adv-x="338" 
d="M121 686h203l-10 -69h-88l-99 -709h88l-10 -69h-203z" />
    <glyph glyph-name="backslash" unicode="\" horiz-adv-x="560" 
d="M155 686l369 -857h-107l-368 857h106z" />
    <glyph glyph-name="bracketright" unicode="]" horiz-adv-x="338" 
d="M21 -92h88l99 709h-88l10 69h203l-119 -847h-203z" />
    <glyph glyph-name="asciicircum" unicode="^" 
d="M520 0h-111q-62 256 -92 385l-200 -385h-112l268 511h121z" />
    <glyph glyph-name="underscore" unicode="_" horiz-adv-x="500" 
d="M4 -65h500l-9 -61h-499z" />
    <glyph glyph-name="grave" unicode="`" horiz-adv-x="333" 
d="M60 717l2 3h128l72 -145h-102z" />
    <glyph glyph-name="a" unicode="a" 
d="M503 117q0 -13 6.5 -20t18.5 -7q10 0 22 4t20 10l-14 -93q-17 -9 -41.5 -15t-48.5 -6q-98 0 -106 76q-30 -35 -70.5 -55.5t-86.5 -20.5q-83 0 -127.5 53t-44.5 148q0 91 29.5 166t84 119.5t127.5 44.5q46 0 82.5 -19.5t56.5 -53.5h6l33 63h107q-54 -374 -54 -394z
M383 322q0 45 -22 69t-59 24q-43 0 -73.5 -31t-39.5 -90q-14 -100 -14 -111q0 -45 22 -69t59 -24q42 0 73 31t40 90q14 100 14 111z" />
    <glyph glyph-name="b" unicode="b" horiz-adv-x="595" 
d="M290.5 501q39.5 20 87.5 20q74 0 119.5 -51t45.5 -146q0 -84 -27.5 -160.5t-85 -125t-142.5 -48.5q-111 0 -157 88l-62 -78h-53l101 720h146l-38 -268q26 29 65.5 49zM397 322q0 45 -22 69t-59 24q-43 0 -73.5 -31t-39.5 -90q-14 -100 -14 -111q0 -45 22 -69t59 -24
q42 0 73 31t40 90q14 100 14 111z" />
    <glyph glyph-name="c" unicode="c" horiz-adv-x="567" 
d="M182 183q0 -41 21 -67t60 -26q46 0 76.5 28.5t38.5 84.5h138q-10 -71 -47 -119t-90.5 -71t-113.5 -23h-16q-100 0 -156.5 53t-56.5 149q0 86 31.5 161t96 121.5t160.5 46.5h16q54 0 98 -21t69.5 -62t25.5 -97q0 -22 -2 -34h-145q2 18 2 27q0 41 -19 64t-58 23
q-45 0 -76.5 -36t-38.5 -89q-14 -104 -14 -113z" />
    <glyph glyph-name="d" unicode="d" horiz-adv-x="595" 
d="M531 375q-36 -252 -36 -258q0 -13 6.5 -20t18.5 -7q10 0 22 4t20 10l-14 -93q-17 -9 -41.5 -15t-48.5 -6q-94 0 -105 69q-66 -69 -150 -69q-81 0 -130.5 51t-49.5 151q0 75 24.5 150.5t78.5 127t137 51.5q48 0 82 -20t51 -49l38 268h146q-13 -93 -49 -345zM376 322
q0 45 -22 69t-59 24q-43 0 -73.5 -31t-39.5 -90q-14 -100 -14 -111q0 -45 22 -69t59 -24q42 0 73 31t40 90q14 100 14 111z" />
    <glyph glyph-name="e" unicode="e" horiz-adv-x="584" 
d="M482.5 78.5q-38.5 -45.5 -94 -67t-117.5 -21.5h-16q-98 0 -158 55t-60 152q0 94 35.5 167.5t102 115t155.5 41.5h16q57 0 103.5 -21.5t73.5 -62.5t27 -97q0 -11 -2 -33l-11 -76h-350q-2 -8 -3.5 -22.5t-1.5 -22.5q0 -43 25 -69.5t70 -26.5q46 0 76 25.5t37 75.5h140
q-9 -67 -47.5 -112.5zM241 390q-32 -31 -43 -79h202q2 18 2 27q0 83 -85 83q-44 0 -76 -31z" />
    <glyph glyph-name="f" unicode="f" horiz-adv-x="363" 
d="M354 626q-18 4 -29 4q-28 0 -42.5 -12.5t-20.5 -36.5t-11 -70h120l-15 -100h-119q-36 -258 -57 -412q-24 -184 -189 -184q-26 0 -54.5 5.5t-44.5 14.5l12 91q11 -5 29.5 -9t30.5 -4q28 0 44.5 15.5t21.5 50.5q30 221 61 432h-60l13 100h61l9 63q12 81 56.5 117.5
t119.5 36.5q25 0 57 -5.5t50 -15.5l-12 -89q-13 4 -31 8z" />
    <glyph glyph-name="g" unicode="g" horiz-adv-x="572" 
d="M196 -67.5q22 -19.5 61 -19.5q43 0 66 23t31 54t13 77q0 9 2 21q-28 -31 -68 -50t-85 -19q-78 0 -122 53t-44 140q0 79 27.5 149.5t84.5 115t141 44.5q53 0 93.5 -22t63.5 -66q20 26 62 78h53l-67 -474q-14 -106 -81.5 -164.5t-178.5 -58.5q-99 0 -159.5 43.5
t-60.5 123.5h146q0 -29 22 -48.5zM194 206q0 -42 22.5 -64.5t59.5 -22.5q43 0 74.5 29t39.5 83l3 23q9 56 9 72q0 47 -21 71t-59 24q-42 0 -73.5 -29t-40.5 -83q-14 -94 -14 -103z" />
    <glyph glyph-name="h" unicode="h" 
d="M226 461q65 60 150 60q70 0 114 -34.5t44 -100.5q0 -11 -7 -63.5t-12 -87.5l-33 -235h-146q47 330 47 340q0 33 -19 54t-50 21q-39 0 -71 -29.5t-38 -71.5l-44 -314h-146l101 720h146z" />
    <glyph glyph-name="i" unicode="i" horiz-adv-x="278" 
d="M263 720l-16 -115h-148l16 115h148zM87 511h146l-72 -511h-146z" />
    <glyph glyph-name="j" unicode="j" horiz-adv-x="280" 
d="M277 720l-16 -115h-148l16 115h148zM247 510l-75 -530q-24 -166 -176 -166q-26 0 -57 5.5t-49 14.5l13 93q10 -5 28.5 -9t30.5 -4q25 0 42 14t22 54l75 528h146z" />
    <glyph glyph-name="k" unicode="k" horiz-adv-x="562" 
d="M241 167l-64 -55l-16 -112h-146l101 720h146l-63 -447l213 238h165l-222 -240l158 -271h-174z" />
    <glyph glyph-name="l" unicode="l" horiz-adv-x="279" 
d="M116 720h146l-101 -720h-146z" />
    <glyph glyph-name="m" unicode="m" horiz-adv-x="870" 
d="M463.5 500q36.5 -21 51.5 -61q64 82 160 82q65 0 105.5 -35.5t40.5 -99.5q0 -15 -2.5 -36t-10.5 -71l-39 -279h-146q47 336 47 349q0 32 -15 49t-42 17q-35 0 -63 -28t-34 -70l-44 -317h-146q47 335 47 349q0 32 -15.5 49t-42.5 17q-35 0 -62.5 -28t-33.5 -70l-44 -317
h-146l72 511h110q4 -50 5 -75q33 43 74.5 64t87.5 21q49 0 85.5 -21z" />
    <glyph glyph-name="n" unicode="n" horiz-adv-x="597" 
d="M215 436q75 85 175 85q70 0 114 -34.5t44 -100.5q0 -13 -3.5 -38.5t-12.5 -88.5q2 19 -36 -259h-146q47 330 47 340q0 33 -19 54t-50 21q-39 0 -71 -29.5t-38 -71.5l-44 -314h-146l72 511h109z" />
    <glyph glyph-name="o" unicode="o" horiz-adv-x="602" 
d="M530 147q-34 -73 -100 -115t-159 -42h-16q-98 0 -158 55t-60 152t35.5 170t101.5 113.5t156 40.5h16q97 0 157.5 -55t60.5 -152q0 -94 -34 -167zM418 323q0 48 -25.5 73t-68.5 25q-49 0 -84.5 -32.5t-43.5 -92.5q-13 -99 -13 -108q0 -48 25.5 -73t68.5 -25
q48 0 83.5 32.5t44.5 92.5q13 99 13 108z" />
    <glyph glyph-name="p" unicode="p" horiz-adv-x="595" 
d="M230 491q2 -16 4 -44q67 74 155 74q81 0 130 -51t49 -151q0 -82 -25.5 -157.5t-79 -123.5t-134.5 -48q-48 0 -82 20t-51 49l-34 -240h-146l97 692h115zM216 189q0 -45 22 -69t59 -24q43 0 73.5 31t39.5 90q14 100 14 111q0 45 -22 69t-59 24q-42 0 -73 -31t-40 -90
q-14 -100 -14 -111z" />
    <glyph glyph-name="q" unicode="q" horiz-adv-x="595" 
d="M300.5 10q-39.5 -20 -87.5 -20q-74 0 -119.5 51t-45.5 146q0 84 27.5 160.5t85 125t142.5 48.5q111 0 157 -88l62 78h53l-97 -691h-146l34 239q-26 -29 -65.5 -49zM194 189q0 -45 22 -69t59 -24q43 0 73.5 31t39.5 90q14 100 14 111q0 45 -22 69t-59 24q-42 0 -73 -31
t-40 -90q-14 -100 -14 -111z" />
    <glyph glyph-name="r" unicode="r" horiz-adv-x="489" 
d="M364 351q0 26 -14.5 43.5t-46.5 17.5q-36 0 -58 -27.5t-28 -68.5l-44 -316h-144l72 511h108l7 -75q6 11 25.5 31t53 37t76.5 17q61 0 92.5 -34t31.5 -91q0 -14 -5 -44.5t-8 -38.5h-122q4 28 4 38z" />
    <glyph glyph-name="s" unicode="s" horiz-adv-x="539" 
d="M143 146q0 -30 28 -43t71 -13t76.5 13t33.5 43q0 24 -26.5 34.5t-83.5 20.5q-57 9 -94.5 21t-64 38.5t-26.5 73.5q0 60 35 102t91.5 63.5t120.5 21.5h20q49 0 92 -15.5t69 -43.5t26 -65q0 -17 -3 -26t-3 -10h-128l1 10q0 50 -84 50q-45 0 -72.5 -13.5t-27.5 -36.5
q0 -22 25.5 -31t81.5 -18q60 -10 97.5 -21t65.5 -38t28 -76q0 -103 -74 -150t-179 -47h-33q-87 0 -140.5 36.5t-53.5 97.5q0 19 4 39h128z" />
    <glyph glyph-name="t" unicode="t" horiz-adv-x="371" 
d="M243 -4.5q-34 -5.5 -59 -5.5q-68 0 -102.5 25.5t-34.5 83.5q0 11 9 77t33 235h-56l14 100h57l23 163h154l-32 -163h119l-14 -100h-119q-26 -182 -27 -190q-11 -72 -11 -82q0 -29 13.5 -39t35.5 -10q12 0 32 4t32 9l-13 -94q-20 -8 -54 -13.5z" />
    <glyph glyph-name="u" unicode="u" horiz-adv-x="612" 
d="M515 140l-4 -26q0 -12 8 -18t18 -6t22.5 4t19.5 7l-12 -90q-42 -21 -91 -21q-100 0 -106 73q-73 -73 -164 -73q-70 0 -114 34.5t-44 100.5q0 13 11 93t41 293h146q-47 -330 -47 -341q0 -37 18 -55.5t51 -18.5q39 0 71 29.5t38 71.5l44 314h146z" />
    <glyph glyph-name="v" unicode="v" horiz-adv-x="536" 
d="M149 0l-108 511h155l63 -342h5l159 342h142l-251 -511h-165z" />
    <glyph glyph-name="w" unicode="w" horiz-adv-x="820" 
d="M289 0h-163l-85 511h151q16 -106 44 -316h6l40 92q55 126 95 224h146l30 -206l15 -110h6q90 210 133 316h142l-227 -511h-161l-44 285h-6z" />
    <glyph glyph-name="x" unicode="x" horiz-adv-x="553" 
d="M186 264l-131 247h170q12 -23 21.5 -43t17.5 -37l32 -66h4q39 48 113 146h158l-201 -246l140 -265h-169l-81 165h-4l-128 -165h-157z" />
    <glyph glyph-name="y" unicode="y" horiz-adv-x="536" 
d="M77 -187q-53 0 -82 15l13 103q11 -5 29.5 -9.5t35.5 -4.5q64 0 104 93l-122 501h155l67 -321h6l152 321h144l-250 -483q-111 -215 -252 -215z" />
    <glyph glyph-name="z" unicode="z" horiz-adv-x="486" 
d="M7 50l268 361h-205l14 100h398l-6 -49l-270 -362h227l-14 -100h-419z" />
    <glyph glyph-name="braceleft" unicode="{" horiz-adv-x="347" 
d="M100.5 317.5q25.5 14.5 29.5 42.5l28 200q11 78 67 102t141 24l-8 -59q-40 0 -61 -15.5t-30 -66.5l-31 -174q-9 -51 -35.5 -77t-74.5 -26l-1 -9q81 0 81 -81q0 -31 -10 -111q-1 -14 -5 -49.5t-4 -56.5q0 -38 16 -49.5t52 -11.5l-8 -59q-77 0 -125.5 19t-48.5 83
q0 5 14 112l16 113q0 30 -19 43t-50 13l11 79q30 0 55.5 14.5z" />
    <glyph glyph-name="bar" unicode="|" horiz-adv-x="250" 
d="M75 720h100v-919h-100v919z" />
    <glyph glyph-name="braceright" unicode="}" horiz-adv-x="347" 
d="M244.5 209.5q-25.5 -14.5 -29.5 -42.5l-28 -200q-11 -78 -67 -102t-141 -24l8 59q40 0 61 15.5t30 66.5l31 174q9 51 35.5 77t74.5 26l1 9q-81 0 -81 81q0 31 10 111q1 14 5 49.5t4 56.5q0 38 -16 49.5t-52 11.5l8 59q77 0 125.5 -19t48.5 -83q0 -5 -14 -112l-16 -113
q0 -30 19 -43t50 -13l-11 -79q-30 0 -55.5 -14.5z" />
    <glyph glyph-name="asciitilde" unicode="~" horiz-adv-x="714" 
d="M610 267.5q-27 -20.5 -66 -38t-81 -17.5q-28 0 -53.5 8.5t-58.5 24.5q-38 17 -62.5 25t-53.5 8q-42 0 -81 -17.5t-66 -38t-27 -22.5l15 106q0 2 27 22.5t66 38t81 17.5q28 0 53.5 -8.5t58.5 -24.5q38 -17 62.5 -25t53.5 -8q42 0 81 17.5t66 38t27 22.5l-15 -106
q0 -2 -27 -22.5z" />
    <glyph glyph-name="uni00A0" unicode="&#xa0;" horiz-adv-x="0" 
 />
    <glyph glyph-name="exclamdown" unicode="&#xa1;" horiz-adv-x="290" 
d="M99 364l21 147h146l-21 -147h-146zM8 -175l109 484h97l-29 -484h-177z" />
    <glyph glyph-name="cent" unicode="&#xa2;" horiz-adv-x="571" 
d="M184 269q0 -41 21 -67t60 -26q46 0 76.5 28.5t38.5 84.5h138q-14 -97 -76.5 -151t-148.5 -61v-85h-101l24 85q-84 9 -131 61t-47 140q0 80 27.5 151.5t84.5 119t141 56.5v88h101l-26 -87q74 -7 121.5 -54t47.5 -125q0 -22 -2 -34h-145q2 18 2 27q0 41 -19 64t-58 23
q-45 0 -76.5 -36t-38.5 -89q-14 -104 -14 -113z" />
    <glyph glyph-name="sterling" unicode="&#xa3;" horiz-adv-x="654" 
d="M122 397l11 79q9 67 45.5 117.5t93 77.5t125.5 27q90 0 146.5 -46.5t56.5 -124.5q0 -20 -4 -49h-149q3 24 3 30q0 29 -19.5 50t-50.5 21q-37 0 -63.5 -22.5t-31.5 -57.5l-15 -102h142l-16 -118h-142l-42 -161h293l-17 -118h-498l16 118h77l23 161h-109l15 118h110z" />
    <glyph glyph-name="currency" unicode="&#xa4;" horiz-adv-x="663" 
d="M96.5 398.5q18.5 47.5 53.5 84.5l-46 55l62 55l47 -54q31 21 71 34t80 13q42 0 78.5 -13t59.5 -34l64 56q24 -31 49 -58l-62 -55q27 -43 27 -105q0 -52 -18.5 -101t-51.5 -84q18 -22 28 -33l19 -22l-61 -54q-21 22 -49 56q-30 -23 -69.5 -36t-82.5 -13q-42 0 -78 12
t-61 35q-42 -36 -63 -55l-47 55l64 55q-32 46 -32 110q0 49 18.5 96.5zM265.5 471q-41.5 -25 -66.5 -67t-25 -89q0 -58 37.5 -97t95.5 -39q47 0 88 25.5t65.5 67.5t24.5 90q0 57 -37.5 95.5t-95.5 38.5q-45 0 -86.5 -25z" />
    <glyph glyph-name="yen" unicode="&#xa5;" horiz-adv-x="642" 
d="M156 448l-98 238h174q44 -116 104 -272h4q98 144 182 272h158l-166 -238h98l-11 -78h-141l-41 -60h174l-11 -79h-200l-33 -231h-153l33 231h-196l11 79h170q-8 20 -26 60h-136l11 78h93z" />
    <glyph glyph-name="brokenbar" unicode="&#xa6;" horiz-adv-x="277" 
d="M246 686l-38 -271h-120l38 271h120zM187 270l-38 -270h-120l38 270h120z" />
    <glyph glyph-name="section" unicode="&#xa7;" horiz-adv-x="550" 
d="M125 616q36 41 92.5 60.5t119.5 19.5q86 0 142.5 -34t56.5 -95q0 -11 -3 -31h-129v9q0 26 -20 40t-59 14q-47 0 -73 -16.5t-26 -42.5q0 -29 28.5 -49.5t88.5 -47.5q55 -25 87.5 -44.5t56.5 -50.5t24 -74q0 -56 -31.5 -103t-73.5 -68q25 -18 39.5 -46t14.5 -61
q0 -59 -35 -100t-92 -61t-122 -20q-86 0 -142.5 33t-56.5 94q0 15 4 31h128v-8q0 -24 20.5 -39t59.5 -15q46 0 72 17t26 43q0 29 -27.5 48.5t-88.5 47.5q-55 25 -88 44.5t-57 50.5t-24 74q0 56 31.5 103t73.5 68q-25 17 -39 45t-14 61q0 62 36 103zM370.5 181.5
q15.5 20.5 15.5 45.5q0 37 -33 61.5t-92 50.5q-8 4 -18.5 8.5t-22.5 11.5q-22 -10 -38.5 -31t-16.5 -47q0 -38 34 -62.5t97 -52.5q8 -4 17 -8t19 -9q23 12 38.5 32.5z" />
    <glyph glyph-name="dieresis" unicode="&#xa8;" horiz-adv-x="440" 
d="M188 740l-17 -122h-121l17 122h121zM392 740l-17 -122h-121l17 122h121z" />
    <glyph glyph-name="copyright" unicode="&#xa9;" horiz-adv-x="740" 
d="M676.5 166q-47.5 -81 -129 -128.5t-177.5 -47.5q-97 0 -178 47.5t-128.5 128.5t-47.5 178q0 96 47.5 177t129 128t177.5 47t177.5 -47.5t129 -128t47.5 -176.5q0 -97 -47.5 -178zM627 498.5q-38 68.5 -105 106.5t-152 38q-86 0 -153.5 -38t-105 -106t-37.5 -155
q0 -88 37.5 -157t104.5 -107t154 -38q85 0 152 38t105 107t38 157q0 86 -38 154.5zM311.5 229q24.5 -25 62.5 -25q43 0 63.5 23t20.5 72h85q0 -80 -46 -124.5t-118 -44.5h-9q-80 0 -130.5 48t-50.5 136v59q0 57 23.5 98.5t64.5 63t91 21.5h8q74 0 120.5 -44t46.5 -126h-88
q0 47 -21 71.5t-60 24.5q-38 0 -62.5 -25t-24.5 -71v-86q0 -46 24.5 -71z" />
    <glyph glyph-name="ordfeminine" unicode="&#xaa;" horiz-adv-x="389" 
d="M308 451q0 -16 16 -16q13 0 25 8l-8 -56q-24 -13 -55 -13q-59 0 -64 46q-41 -46 -96 -46q-50 0 -77 32t-27 90q0 55 18 100.5t51 72.5t77 27q27 0 49.5 -12t34.5 -32h4l20 38h65q-33 -227 -33 -239zM230 532q6 41 6 43q0 28 -13.5 42.5t-36.5 14.5q-26 0 -44.5 -19
t-23.5 -55l-3 -24q-6 -41 -6 -43q0 -28 13.5 -42t36.5 -14q25 0 44 19t24 54z" />
    <glyph glyph-name="guillemotleft" unicode="&#xab;" horiz-adv-x="459" 
d="M47 337l145 174h62l-113 -174l64 -174h-62zM228 337l146 174h62l-113 -174l64 -174h-62z" />
    <glyph glyph-name="logicalnot" unicode="&#xac;" horiz-adv-x="600" 
d="M425 166l26 181h-412l17 121h529l-43 -302h-117z" />
    <glyph glyph-name="uni00AD" unicode="&#xad;" horiz-adv-x="260" 
d="M261 336l-17 -128h-252l16 128h253z" />
    <glyph glyph-name="registered" unicode="&#xae;" horiz-adv-x="740" 
d="M676.5 166q-47.5 -81 -129 -128.5t-177.5 -47.5q-97 0 -178 47.5t-128.5 128.5t-47.5 178q0 96 47.5 177t129 128t177.5 47t177.5 -47.5t129 -128t47.5 -176.5q0 -97 -47.5 -178zM628 499q-38 68 -105.5 106.5t-152.5 38.5q-86 0 -153.5 -38t-105 -106.5t-37.5 -155.5
q0 -88 37.5 -157t104.5 -107t154 -38q85 0 152.5 38t105.5 107t38 157q0 87 -38 155zM510 132q-31 0 -50 15.5t-19 50.5q0 52 -14 81t-51 29h-70v-171h-92v414h185q60 0 100 -24t40 -79q0 -34 -21.5 -62.5t-52.5 -34.5v-5q26 -8 46 -35.5t20 -73.5q0 -67 31 -76v-21
q-22 -8 -52 -8zM430.5 394q14.5 13 14.5 32v5q0 20 -13.5 32.5t-35.5 12.5h-90v-95h90q20 0 34.5 13z" />
    <glyph glyph-name="macron" unicode="&#xaf;" horiz-adv-x="460" 
d="M76 736h318l-11 -74h-318z" />
    <glyph glyph-name="degree" unicode="&#xb0;" horiz-adv-x="400" 
d="M328.5 477q-23.5 -38 -62 -59.5t-82.5 -21.5q-62 0 -99.5 37.5t-37.5 96.5q0 47 23.5 85t62 59.5t81.5 21.5q62 0 100 -38.5t38 -96.5q0 -46 -23.5 -84zM250 491.5q24 24.5 24 61.5q0 28 -17.5 49t-52.5 21q-32 0 -56 -24t-24 -60q0 -32 19 -52t50 -20q33 0 57 24.5z" />
    <glyph glyph-name="plusminus" unicode="&#xb1;" horiz-adv-x="600" 
d="M573 382l-15 -106h-204l-18 -129h-105l18 129h-203l15 106h203l18 129h105l-18 -129h204zM24 105h507l-14 -105h-507z" />
    <glyph glyph-name="uni00B2" unicode="&#xb2;" horiz-adv-x="505" 
d="M288 604q-38 -37 -101 -74q-6 -4 -20 -12.5t-22 -15t-12 -12.5h167l-9 -71h-277q0 39 18.5 69t45.5 51t69 47q50 32 73 53.5t23 50.5q0 20 -13 32.5t-37 12.5q-30 0 -49 -20t-19 -51h-76q0 19 9 49.5t44 59.5t104 29q59 0 89.5 -30.5t30.5 -76.5q0 -54 -38 -91z" />
    <glyph glyph-name="uni00B3" unicode="&#xb3;" horiz-adv-x="506" 
d="M98 519q0 -20 15 -31t44 -11q34 0 54.5 15.5t20.5 46.5q0 25 -17.5 33t-47.5 8h-39l8 59h45q26 0 45 15t19 41q0 20 -14.5 30t-37.5 10q-24 0 -42 -13t-22 -36h-73q3 51 45 82.5t102 31.5h11q51 0 82.5 -25t31.5 -64q0 -34 -19 -58t-50 -37v-5q54 -18 54 -74
q0 -57 -44.5 -91t-109.5 -34h-14q-59 0 -91 25.5t-32 67.5q0 10 3 25h74z" />
    <glyph glyph-name="acute" unicode="&#xb4;" horiz-adv-x="333" 
d="M153 720h129v-4l-141 -141h-101z" />
    <glyph glyph-name="uni00B5" unicode="&#xb5;" horiz-adv-x="610" 
d="M522 114q0 -12 8 -18t18 -6t22.5 4t19.5 7l-13 -90q-11 -7 -35 -14t-56 -7q-100 0 -105 73q-75 -73 -165 -73q-23 0 -41 7q3 -14 3 -32q0 -14 -1 -22l-15 -104h-146l95 672h146q-47 -331 -47 -341q0 -33 18.5 -53.5t49.5 -20.5q39 0 71.5 29.5t38.5 71.5l44 314h146z" />
    <glyph glyph-name="paragraph" unicode="&#xb6;" horiz-adv-x="526" 
d="M100.5 309q-47.5 52 -47.5 128q0 71 34.5 128t92 89t122.5 32h273l-10 -70h-66l-109 -781h-75l109 781h-74l-109 -781h-76l58 416q-75 6 -122.5 58z" />
    <glyph glyph-name="periodcentered" unicode="&#xb7;" horiz-adv-x="277" 
d="M221 362l-21 -148h-146l21 148h146z" />
    <glyph glyph-name="cedilla" unicode="&#xb8;" horiz-adv-x="342" 
d="M98 -129.5q19 -12.5 59 -12.5q23 0 38.5 10.5t15.5 32.5q0 31 -40 31h-20l7 51h23q46 0 75.5 -16.5t29.5 -57.5q0 -59 -42 -82.5t-91 -23.5q-29 0 -58 7.5t-46 21.5l28 52q2 -1 21 -13.5z" />
    <glyph glyph-name="uni00B9" unicode="&#xb9;" horiz-adv-x="319" 
d="M22 487h90l30 213h-90l7 48q30 2 70 15.5t78 32.5h29l-44 -309h79l-9 -65h-249z" />
    <glyph glyph-name="ordmasculine" unicode="&#xba;" horiz-adv-x="367" 
d="M297.5 428q-46.5 -55 -130.5 -55h-10q-60 0 -96 33.5t-36 92.5q0 89 47.5 143t129.5 54h10q59 0 95.5 -33.5t36.5 -92.5q0 -87 -46.5 -142zM256 575q0 29 -15.5 44.5t-41.5 15.5q-30 0 -51.5 -19.5t-26.5 -56.5l-8 -65q0 -29 15.5 -44.5t41.5 -15.5q29 0 51 19.5t27 56.5
z" />
    <glyph glyph-name="guillemotright" unicode="&#xbb;" horiz-adv-x="459" 
d="M136 337l-65 174h62l98 -174l-147 -174h-62zM318 337l-65 174h62l97 -174l-146 -174h-62z" />
    <glyph glyph-name="onequarter" unicode="&#xbc;" horiz-adv-x="745" 
d="M98 0l517 686h69l-514 -686h-72zM32 372h91l30 216h-92l7 49q31 2 71.5 15.5t79.5 32.5h29l-44 -313h90l-10 -66h-262zM602 283.5q16 28.5 26 52.5h35l-26 -183h51l-9 -65h-51l-13 -88h-78l13 88h-166l9 65q34 45 72.5 111t61.5 118h77q-20 -54 -68 -125t-81 -104h104
l11 82q16 20 32 48.5z" />
    <glyph glyph-name="onehalf" unicode="&#xbd;" horiz-adv-x="765" 
d="M90 0l517 686h69l-514 -686h-72zM32 372h91l30 216h-92l7 49q31 2 71.5 15.5t79.5 32.5h29l-44 -313h90l-10 -66h-262zM675 184q-38 -37 -101 -74q-6 -4 -20 -12.5t-22 -15t-12 -12.5h167l-9 -71h-277q0 39 18.5 69t45.5 51t69 47q50 32 73 53.5t23 50.5q0 20 -13 32.5
t-37 12.5q-30 0 -49 -20t-19 -51h-76q0 19 9 49.5t44 59.5t104 29q59 0 89.5 -30.5t30.5 -76.5q0 -54 -38 -91z" />
    <glyph glyph-name="threequarters" unicode="&#xbe;" horiz-adv-x="755" 
d="M121 408q0 -20 15 -31t44 -11q34 0 54.5 15.5t20.5 46.5q0 25 -17.5 33t-47.5 8h-39l8 59h45q26 0 45 15t19 41q0 20 -14.5 30t-37.5 10q-24 0 -42 -13t-22 -36h-73q3 51 45 82.5t102 31.5h11q51 0 82.5 -25t31.5 -64q0 -34 -19 -58t-50 -37v-5q54 -18 54 -74
q0 -57 -44.5 -91t-109.5 -34h-14q-59 0 -91 25.5t-32 67.5q0 10 3 25h74zM101 0l516 686h69l-513 -686h-72zM602.5 284.5q15.5 28.5 24.5 51.5h35l-25 -183h51l-10 -65h-51l-12 -88h-78l12 88h-166l10 65q34 45 72.5 111t61.5 118h77q-20 -54 -68 -125t-81 -104h104l11 82
q17 21 32.5 49.5z" />
    <glyph glyph-name="questiondown" unicode="&#xbf;" horiz-adv-x="572" 
d="M383 364h-148q14 98 20 147h148q-14 -98 -20 -147zM371 310l-9 -62q-5 -31 -25.5 -54.5t-60.5 -55.5q-45 -37 -67 -64.5t-23 -66.5q0 -31 21.5 -54.5t59.5 -23.5q58 0 82.5 37t26.5 93h141q0 -72 -34.5 -127.5t-95 -86t-136.5 -30.5h-12q-64 0 -111 25.5t-72 67t-25 87.5
q0 51 19.5 89.5t46 63t66.5 52.5q33 24 49 39.5t19 34.5l5 36h135z" />
    <glyph glyph-name="Agrave" unicode="&#xc0;" horiz-adv-x="686" 
d="M261 892l2 3h128l72 -145h-102zM169 135l-67 -135h-148l345 686h184l152 -686h-162l-31 135h-273zM228 252h190l-54 269h-5q-74 -149 -131 -269z" />
    <glyph glyph-name="Aacute" unicode="&#xc1;" horiz-adv-x="686" 
d="M439 895h129v-4l-141 -141h-101zM169 135l-67 -135h-148l345 686h184l152 -686h-162l-31 135h-273zM228 252h190l-54 269h-5q-74 -149 -131 -269z" />
    <glyph glyph-name="Acircumflex" unicode="&#xc2;" horiz-adv-x="686" 
d="M468 895l116 -145h-105l-72 83l-97 -83h-104l159 145h103zM169 135l-67 -135h-148l345 686h184l152 -686h-162l-31 135h-273zM228 252h190l-54 269h-5q-74 -149 -131 -269z" />
    <glyph glyph-name="Atilde" unicode="&#xc3;" horiz-adv-x="686" 
d="M581.5 813.5q-19.5 -28.5 -51 -46.5t-68.5 -18q-22 0 -42.5 5t-47.5 15q-25 9 -41.5 13t-34.5 4q-41 0 -57 -37h-65q4 30 23.5 59t51 47t68.5 18q22 0 42.5 -5t47.5 -15q26 -9 42 -13.5t33 -4.5q20 0 35 10t23 28h65q-4 -31 -23.5 -59.5zM169 135l-67 -135h-148l345 686
h184l152 -686h-162l-31 135h-273zM228 252h190l-54 269h-5q-74 -149 -131 -269z" />
    <glyph glyph-name="Adieresis" unicode="&#xc4;" horiz-adv-x="686" 
d="M368 872l-17 -122h-121l17 122h121zM572 872l-17 -122h-121l17 122h121zM169 135l-67 -135h-148l345 686h184l152 -686h-162l-31 135h-273zM228 252h190l-54 269h-5q-74 -149 -131 -269z" />
    <glyph glyph-name="Aring" unicode="&#xc5;" horiz-adv-x="686" 
d="M478.5 762.5q-33.5 -32.5 -78.5 -32.5q-40 0 -66 25.5t-26 64.5q0 46 34 78.5t79 32.5q39 0 65 -25.5t26 -64.5q0 -46 -33.5 -78.5zM441.5 797.5q15.5 14.5 15.5 36.5q0 19 -12 31.5t-31 12.5q-21 0 -35.5 -15t-14.5 -37q0 -18 12 -30.5t30 -12.5q20 0 35.5 14.5z
M169 135l-67 -135h-148l345 686h184l152 -686h-162l-31 135h-273zM228 252h190l-54 269h-5q-74 -149 -131 -269z" />
    <glyph glyph-name="AE" unicode="&#xc6;" horiz-adv-x="1004" 
d="M185 135l-87 -135h-146l440 686h616l-34 -123h-389l13 -152h333l-17 -121h-307l4 -44q8 -79 11 -123h293v-123h-446l-11 135h-273zM260 252h191q-4 50 -10 160l-7 109h-5q-57 -89 -169 -269z" />
    <glyph glyph-name="Ccedilla" unicode="&#xc7;" horiz-adv-x="683" 
d="M522 62.5q-83 -72.5 -211 -72.5h-14q-118 0 -190 64.5t-72 182.5q0 13 4.5 49t14.5 106q13 95 59 163.5t118 104.5t161 36h14q109 0 175.5 -59t66.5 -169q0 -29 -4 -54h-147q2 13 4 39v4q0 55 -32 85.5t-85 30.5q-81 0 -118.5 -48t-51.5 -143l-5 -35q-13 -79 -13 -107
q0 -65 34 -96t95 -31q136 0 158 157h141q-19 -135 -102 -207.5zM202 -129.5q19 -12.5 59 -12.5q23 0 38.5 10.5t15.5 32.5q0 31 -40 31h-20l7 51h23q46 0 75.5 -16.5t29.5 -57.5q0 -59 -42 -82.5t-91 -23.5q-29 0 -58 7.5t-46 21.5l28 52q2 -1 21 -13.5z" />
    <glyph glyph-name="Egrave" unicode="&#xc8;" 
d="M226 892l2 3h128l72 -145h-102zM120 686h483l-35 -123h-314l-21 -150h293l-17 -123h-293l-23 -167h316v-123h-486z" />
    <glyph glyph-name="Eacute" unicode="&#xc9;" 
d="M429 895h129v-4l-141 -141h-101zM120 686h483l-35 -123h-314l-21 -150h293l-17 -123h-293l-23 -167h316v-123h-486z" />
    <glyph glyph-name="Ecircumflex" unicode="&#xca;" 
d="M436 895l116 -145h-105l-72 83l-97 -83h-104l159 145h103zM120 686h483l-35 -123h-314l-21 -150h293l-17 -123h-293l-23 -167h316v-123h-486z" />
    <glyph glyph-name="Edieresis" unicode="&#xcb;" 
d="M338 872l-17 -122h-121l17 122h121zM542 872l-17 -122h-121l17 122h121zM120 686h483l-35 -123h-314l-21 -150h293l-17 -123h-293l-23 -167h316v-123h-486z" />
    <glyph glyph-name="Igrave" unicode="&#xcc;" horiz-adv-x="461" 
d="M134 892l2 3h128l72 -145h-102zM436 686l-18 -123h-80l-61 -440h80l-18 -123h-316l18 123h81l61 440h-81l18 123h316z" />
    <glyph glyph-name="Iacute" unicode="&#xcd;" horiz-adv-x="461" 
d="M337 895h129v-4l-141 -141h-101zM436 686l-18 -123h-80l-61 -440h80l-18 -123h-316l18 123h81l61 440h-81l18 123h316z" />
    <glyph glyph-name="Icircumflex" unicode="&#xce;" horiz-adv-x="461" 
d="M359 895l116 -145h-105l-72 83l-97 -83h-104l159 145h103zM436 686l-18 -123h-80l-61 -440h80l-18 -123h-316l18 123h81l61 440h-81l18 123h316z" />
    <glyph glyph-name="Idieresis" unicode="&#xcf;" horiz-adv-x="461" 
d="M263 872l-17 -122h-121l17 122h121zM467 872l-17 -122h-121l17 122h121zM436 686l-18 -123h-80l-61 -440h80l-18 -123h-316l18 123h81l61 440h-81l18 123h316z" />
    <glyph glyph-name="Eth" unicode="&#xd0;" horiz-adv-x="686" 
d="M-16 303l11 80h82l43 303h275q73 0 130.5 -29.5t90 -84.5t32.5 -129q0 -20 -4 -50.5t-14 -98.5q-21 -146 -112.5 -220t-249.5 -74h-245l43 303h-82zM301 123q66 0 110 38.5t55 110.5l7 45q7 42 11 74.5t4 57.5q0 53 -34.5 83.5t-90.5 30.5h-106l-25 -180h112l-11 -80
h-112l-25 -180h105z" />
    <glyph glyph-name="Ntilde" unicode="&#xd1;" horiz-adv-x="691" 
d="M591.5 813.5q-19.5 -28.5 -51 -46.5t-68.5 -18q-22 0 -42.5 5t-47.5 15q-25 9 -41.5 13t-34.5 4q-41 0 -57 -37h-65q4 30 23.5 59t51 47t68.5 18q22 0 42.5 -5t47.5 -15q26 -9 42 -13.5t33 -4.5q20 0 35 10t23 28h65q-4 -31 -23.5 -59.5zM268 316q-13 25 -25.5 52
t-17.5 37l-4 -3l-57 -402h-141l97 686h131l171 -318q14 -25 23 -47q4 -8 9 -18.5t11 -22.5l3 3l57 403h141l-97 -686h-131z" />
    <glyph glyph-name="Ograve" unicode="&#xd2;" horiz-adv-x="708" 
d="M265 892l2 3h128l72 -145h-102zM535 67.5q-96 -77.5 -246 -77.5q-73 0 -130.5 30.5t-90 87.5t-32.5 133q0 17 2 35t7 51l9 64q21 148 117 226t245 78q73 0 130.5 -30.5t90 -88t32.5 -133.5q0 -20 -3.5 -50.5t-13.5 -98.5q-21 -149 -117 -226.5zM494 317q7 42 11 74.5
t4 57.5q0 57 -34.5 90.5t-90.5 33.5q-74 0 -116 -47t-53 -136q0 -2 -7 -46q-5 -35 -8 -62t-3 -46q0 -57 34 -90t91 -33q67 0 110.5 41t54.5 118z" />
    <glyph glyph-name="Oacute" unicode="&#xd3;" horiz-adv-x="708" 
d="M477 895h129v-4l-141 -141h-101zM535 67.5q-96 -77.5 -246 -77.5q-73 0 -130.5 30.5t-90 87.5t-32.5 133q0 17 2 35t7 51l9 64q21 148 117 226t245 78q73 0 130.5 -30.5t90 -88t32.5 -133.5q0 -20 -3.5 -50.5t-13.5 -98.5q-21 -149 -117 -226.5zM494 317q7 42 11 74.5
t4 57.5q0 57 -34.5 90.5t-90.5 33.5q-74 0 -116 -47t-53 -136q0 -2 -7 -46q-5 -35 -8 -62t-3 -46q0 -57 34 -90t91 -33q67 0 110.5 41t54.5 118z" />
    <glyph glyph-name="Ocircumflex" unicode="&#xd4;" horiz-adv-x="708" 
d="M498 895l116 -145h-105l-72 83l-97 -83h-104l159 145h103zM535 67.5q-96 -77.5 -246 -77.5q-73 0 -130.5 30.5t-90 87.5t-32.5 133q0 17 2 35t7 51l9 64q21 148 117 226t245 78q73 0 130.5 -30.5t90 -88t32.5 -133.5q0 -20 -3.5 -50.5t-13.5 -98.5q-21 -149 -117 -226.5z
M494 317q7 42 11 74.5t4 57.5q0 57 -34.5 90.5t-90.5 33.5q-74 0 -116 -47t-53 -136q0 -2 -7 -46q-5 -35 -8 -62t-3 -46q0 -57 34 -90t91 -33q67 0 110.5 41t54.5 118z" />
    <glyph glyph-name="Otilde" unicode="&#xd5;" horiz-adv-x="708" 
d="M624.5 813.5q-19.5 -28.5 -51 -46.5t-68.5 -18q-22 0 -42.5 5t-47.5 15q-25 9 -41.5 13t-34.5 4q-41 0 -57 -37h-65q4 30 23.5 59t51 47t68.5 18q22 0 42.5 -5t47.5 -15q26 -9 42 -13.5t33 -4.5q20 0 35 10t23 28h65q-4 -31 -23.5 -59.5zM535 67.5q-96 -77.5 -246 -77.5
q-73 0 -130.5 30.5t-90 87.5t-32.5 133q0 17 2 35t7 51l9 64q21 148 117 226t245 78q73 0 130.5 -30.5t90 -88t32.5 -133.5q0 -20 -3.5 -50.5t-13.5 -98.5q-21 -149 -117 -226.5zM494 317q7 42 11 74.5t4 57.5q0 57 -34.5 90.5t-90.5 33.5q-74 0 -116 -47t-53 -136
q0 -2 -7 -46q-5 -35 -8 -62t-3 -46q0 -57 34 -90t91 -33q67 0 110.5 41t54.5 118z" />
    <glyph glyph-name="Odieresis" unicode="&#xd6;" horiz-adv-x="708" 
d="M398 872l-17 -122h-121l17 122h121zM602 872l-17 -122h-121l17 122h121zM535 67.5q-96 -77.5 -246 -77.5q-73 0 -130.5 30.5t-90 87.5t-32.5 133q0 17 2 35t7 51l9 64q21 148 117 226t245 78q73 0 130.5 -30.5t90 -88t32.5 -133.5q0 -20 -3.5 -50.5t-13.5 -98.5
q-21 -149 -117 -226.5zM494 317q7 42 11 74.5t4 57.5q0 57 -34.5 90.5t-90.5 33.5q-74 0 -116 -47t-53 -136q0 -2 -7 -46q-5 -35 -8 -62t-3 -46q0 -57 34 -90t91 -33q67 0 110.5 41t54.5 118z" />
    <glyph glyph-name="multiply" unicode="&#xd7;" horiz-adv-x="600" 
d="M474 474q12 -14 42 -50l21 -25l-165 -144l124 -143l-83 -75l-53 61q-48 54 -71 82l-165 -143l-21 25q-30 36 -42 50l164 143l-123 144l83 75l125 -144z" />
    <glyph glyph-name="Oslash" unicode="&#xd8;" horiz-adv-x="708" 
d="M535 67.5q-96 -77.5 -246 -77.5q-75 0 -133 32l-65 -87h-86l96 129q-65 68 -65 177q0 17 2 35t7 51l9 64q21 148 117 226t245 78q74 0 131 -31l68 90h86l-98 -132q31 -33 48.5 -79t17.5 -100q0 -20 -3.5 -50.5t-13.5 -98.5q-21 -149 -117 -226.5zM201 199l261 350
q-34 24 -78 24q-74 0 -116 -47t-53 -136q0 -2 -7 -46q-5 -35 -8 -62t-3 -46q0 -22 4 -37zM494 317q7 42 11 74.5t4 57.5q0 22 -6 40l-262 -352q32 -24 81 -24q67 0 110.5 41t54.5 118z" />
    <glyph glyph-name="Ugrave" unicode="&#xd9;" horiz-adv-x="673" 
d="M235 892l2 3h128l72 -145h-102zM498 51q-79 -61 -197 -61h-28q-106 0 -167.5 51.5t-61.5 139.5q0 13 14.5 119.5t53.5 385.5h154q-66 -471 -66 -481q0 -42 28.5 -67.5t76.5 -25.5q53 0 89.5 30.5t43.5 78.5l65 465h154l-65 -468q-15 -106 -94 -167z" />
    <glyph glyph-name="Uacute" unicode="&#xda;" horiz-adv-x="673" 
d="M455 895h129v-4l-141 -141h-101zM498 51q-79 -61 -197 -61h-28q-106 0 -167.5 51.5t-61.5 139.5q0 13 14.5 119.5t53.5 385.5h154q-66 -471 -66 -481q0 -42 28.5 -67.5t76.5 -25.5q53 0 89.5 30.5t43.5 78.5l65 465h154l-65 -468q-15 -106 -94 -167z" />
    <glyph glyph-name="Ucircumflex" unicode="&#xdb;" horiz-adv-x="673" 
d="M459 895l116 -145h-105l-72 83l-97 -83h-104l159 145h103zM498 51q-79 -61 -197 -61h-28q-106 0 -167.5 51.5t-61.5 139.5q0 13 14.5 119.5t53.5 385.5h154q-66 -471 -66 -481q0 -42 28.5 -67.5t76.5 -25.5q53 0 89.5 30.5t43.5 78.5l65 465h154l-65 -468
q-15 -106 -94 -167z" />
    <glyph glyph-name="Udieresis" unicode="&#xdc;" horiz-adv-x="673" 
d="M364 872l-17 -122h-121l17 122h121zM568 872l-17 -122h-121l17 122h121zM498 51q-79 -61 -197 -61h-28q-106 0 -167.5 51.5t-61.5 139.5q0 13 14.5 119.5t53.5 385.5h154q-66 -471 -66 -481q0 -42 28.5 -67.5t76.5 -25.5q53 0 89.5 30.5t43.5 78.5l65 465h154l-65 -468
q-15 -106 -94 -167z" />
    <glyph glyph-name="Yacute" unicode="&#xdd;" horiz-adv-x="637" 
d="M445 895h129v-4l-141 -141h-101zM347 0h-154l37 263l-175 423h174l104 -272h5l182 272h158l-294 -423z" />
    <glyph glyph-name="Thorn" unicode="&#xde;" horiz-adv-x="634" 
d="M177 0h-154l97 686h154l-16 -114h177q51 0 92.5 -22t64.5 -62t23 -90q0 -62 -30.5 -118.5t-85 -91t-123.5 -34.5h-177zM216 272h146q41 0 69 32.5t28 75.5q0 30 -20.5 50t-51.5 20h-146z" />
    <glyph glyph-name="germandbls" unicode="&#xdf;" horiz-adv-x="622" 
d="M535.5 117q-34.5 -55 -95 -86t-135.5 -31h-73l14 100h51q32 0 61.5 17t48 49.5t18.5 75.5q0 41 -26.5 65t-68.5 24h-51l14 100h46q28 0 53 15.5t40.5 42.5t15.5 60q0 36 -22.5 57.5t-59.5 21.5q-43 0 -72.5 -29t-35.5 -73l-83 -592h-146l67 477h-60l14 100h60
q11 66 52 115.5t99.5 75.5t122.5 26q88 0 148.5 -40t60.5 -114q0 -58 -34.5 -109.5t-86.5 -71.5l1 -5q44 -16 70.5 -57t26.5 -92q0 -67 -34.5 -122z" />
    <glyph glyph-name="agrave" unicode="&#xe0;" 
d="M170 717l2 3h128l72 -145h-102zM503 117q0 -13 6.5 -20t18.5 -7q10 0 22 4t20 10l-14 -93q-17 -9 -41.5 -15t-48.5 -6q-98 0 -106 76q-30 -35 -70.5 -55.5t-86.5 -20.5q-83 0 -127.5 53t-44.5 148q0 91 29.5 166t84 119.5t127.5 44.5q46 0 82.5 -19.5t56.5 -53.5h6l33 63
h107q-54 -374 -54 -394zM383 322q0 45 -22 69t-59 24q-43 0 -73.5 -31t-39.5 -90q-14 -100 -14 -111q0 -45 22 -69t59 -24q42 0 73 31t40 90q14 100 14 111z" />
    <glyph glyph-name="aacute" unicode="&#xe1;" 
d="M376 720h129v-4l-141 -141h-101zM503 117q0 -13 6.5 -20t18.5 -7q10 0 22 4t20 10l-14 -93q-17 -9 -41.5 -15t-48.5 -6q-98 0 -106 76q-30 -35 -70.5 -55.5t-86.5 -20.5q-83 0 -127.5 53t-44.5 148q0 91 29.5 166t84 119.5t127.5 44.5q46 0 82.5 -19.5t56.5 -53.5h6
l33 63h107q-54 -374 -54 -394zM383 322q0 45 -22 69t-59 24q-43 0 -73.5 -31t-39.5 -90q-14 -100 -14 -111q0 -45 22 -69t59 -24q42 0 73 31t40 90q14 100 14 111z" />
    <glyph glyph-name="acircumflex" unicode="&#xe2;" 
d="M405 720l116 -145h-105l-72 83l-97 -83h-104l159 145h103zM503 117q0 -13 6.5 -20t18.5 -7q10 0 22 4t20 10l-14 -93q-17 -9 -41.5 -15t-48.5 -6q-98 0 -106 76q-30 -35 -70.5 -55.5t-86.5 -20.5q-83 0 -127.5 53t-44.5 148q0 91 29.5 166t84 119.5t127.5 44.5
q46 0 82.5 -19.5t56.5 -53.5h6l33 63h107q-54 -374 -54 -394zM383 322q0 45 -22 69t-59 24q-43 0 -73.5 -31t-39.5 -90q-14 -100 -14 -111q0 -45 22 -69t59 -24q42 0 73 31t40 90q14 100 14 111z" />
    <glyph glyph-name="atilde" unicode="&#xe3;" 
d="M524.5 660.5q-19.5 -28.5 -51 -46.5t-68.5 -18q-22 0 -42.5 5t-47.5 15q-25 9 -41.5 13t-34.5 4q-41 0 -57 -37h-65q4 30 23.5 59t51 47t68.5 18q22 0 42.5 -5t47.5 -15q26 -9 42 -13.5t33 -4.5q20 0 35 10t23 28h65q-4 -31 -23.5 -59.5zM503 117q0 -13 6.5 -20t18.5 -7
q10 0 22 4t20 10l-14 -93q-17 -9 -41.5 -15t-48.5 -6q-98 0 -106 76q-30 -35 -70.5 -55.5t-86.5 -20.5q-83 0 -127.5 53t-44.5 148q0 91 29.5 166t84 119.5t127.5 44.5q46 0 82.5 -19.5t56.5 -53.5h6l33 63h107q-54 -374 -54 -394zM383 322q0 45 -22 69t-59 24
q-43 0 -73.5 -31t-39.5 -90q-14 -100 -14 -111q0 -45 22 -69t59 -24q42 0 73 31t40 90q14 100 14 111z" />
    <glyph glyph-name="adieresis" unicode="&#xe4;" 
d="M299 720l-17 -122h-121l17 122h121zM503 720l-17 -122h-121l17 122h121zM503 117q0 -13 6.5 -20t18.5 -7q10 0 22 4t20 10l-14 -93q-17 -9 -41.5 -15t-48.5 -6q-98 0 -106 76q-30 -35 -70.5 -55.5t-86.5 -20.5q-83 0 -127.5 53t-44.5 148q0 91 29.5 166t84 119.5
t127.5 44.5q46 0 82.5 -19.5t56.5 -53.5h6l33 63h107q-54 -374 -54 -394zM383 322q0 45 -22 69t-59 24q-43 0 -73.5 -31t-39.5 -90q-14 -100 -14 -111q0 -45 22 -69t59 -24q42 0 73 31t40 90q14 100 14 111z" />
    <glyph glyph-name="aring" unicode="&#xe5;" 
d="M408.5 589.5q-33.5 -32.5 -78.5 -32.5q-40 0 -66 25.5t-26 64.5q0 46 34 78.5t79 32.5q39 0 65 -25.5t26 -64.5q0 -46 -33.5 -78.5zM371.5 624.5q15.5 14.5 15.5 36.5q0 19 -12 31.5t-31 12.5q-21 0 -35.5 -15t-14.5 -37q0 -18 12 -30.5t30 -12.5q20 0 35.5 14.5z
M503 117q0 -13 6.5 -20t18.5 -7q10 0 22 4t20 10l-14 -93q-17 -9 -41.5 -15t-48.5 -6q-98 0 -106 76q-30 -35 -70.5 -55.5t-86.5 -20.5q-83 0 -127.5 53t-44.5 148q0 91 29.5 166t84 119.5t127.5 44.5q46 0 82.5 -19.5t56.5 -53.5h6l33 63h107q-54 -374 -54 -394zM383 322
q0 45 -22 69t-59 24q-43 0 -73.5 -31t-39.5 -90q-14 -100 -14 -111q0 -45 22 -69t59 -24q42 0 73 31t40 90q14 100 14 111z" />
    <glyph glyph-name="ae" unicode="&#xe6;" horiz-adv-x="918" 
d="M521 188q0 -48 21.5 -74t70.5 -26q54 0 81 32t32 71h136q-8 -59 -43 -104.5t-91 -71t-125 -25.5h-10q-64 0 -112 23t-76 66q-39 -42 -99 -65.5t-123 -23.5q-70 0 -116 25t-46 94q0 83 44.5 127t123 59.5t197.5 15.5q7 42 7 51q0 28 -19 45.5t-63 17.5q-46 0 -70.5 -21
t-27.5 -42l-1 -8h-141q0 47 31.5 85t88 60t127.5 22h21q111 0 160 -49q34 24 76 36.5t88 12.5h16q94 0 148 -50t54 -134q0 -19 -3 -39l-9 -67h-345q-3 -22 -3 -43zM578.5 393q-30.5 -30 -42.5 -82h200q3 19 3 30q0 38 -23.5 60t-60.5 22q-46 0 -76.5 -30zM224 208
q-49 -21 -49 -71q0 -27 19 -38t55 -11q43 0 78 30t43 79l5 32q-102 0 -151 -21z" />
    <glyph glyph-name="ccedilla" unicode="&#xe7;" horiz-adv-x="571" 
d="M184 183q0 -41 21 -67t60 -26q46 0 76.5 28.5t38.5 84.5h138q-10 -71 -47 -119t-90.5 -71t-113.5 -23h-16q-100 0 -156.5 53t-56.5 149q0 86 31.5 161t96 121.5t160.5 46.5h16q54 0 98 -21t69.5 -62t25.5 -97q0 -22 -2 -34h-145q2 18 2 27q0 41 -19 64t-58 23
q-45 0 -76.5 -36t-38.5 -89q-14 -104 -14 -113zM156 -129.5q19 -12.5 59 -12.5q23 0 38.5 10.5t15.5 32.5q0 31 -40 31h-20l7 51h23q46 0 75.5 -16.5t29.5 -57.5q0 -59 -42 -82.5t-91 -23.5q-29 0 -58 7.5t-46 21.5l28 52q2 -1 21 -13.5z" />
    <glyph glyph-name="egrave" unicode="&#xe8;" horiz-adv-x="588" 
d="M200 717l2 3h128l72 -145h-102zM484.5 78.5q-38.5 -45.5 -94 -67t-117.5 -21.5h-16q-98 0 -158 55t-60 152q0 94 35.5 167.5t102 115t155.5 41.5h16q57 0 103.5 -21.5t73.5 -62.5t27 -97q0 -11 -2 -33l-11 -76h-350q-2 -8 -3.5 -22.5t-1.5 -22.5q0 -43 25 -69.5t70 -26.5
q46 0 76 25.5t37 75.5h140q-9 -67 -47.5 -112.5zM243 390q-32 -31 -43 -79h202q2 18 2 27q0 83 -85 83q-44 0 -76 -31z" />
    <glyph glyph-name="eacute" unicode="&#xe9;" horiz-adv-x="588" 
d="M395 720h129v-4l-141 -141h-101zM484.5 78.5q-38.5 -45.5 -94 -67t-117.5 -21.5h-16q-98 0 -158 55t-60 152q0 94 35.5 167.5t102 115t155.5 41.5h16q57 0 103.5 -21.5t73.5 -62.5t27 -97q0 -11 -2 -33l-11 -76h-350q-2 -8 -3.5 -22.5t-1.5 -22.5q0 -43 25 -69.5
t70 -26.5q46 0 76 25.5t37 75.5h140q-9 -67 -47.5 -112.5zM243 390q-32 -31 -43 -79h202q2 18 2 27q0 83 -85 83q-44 0 -76 -31z" />
    <glyph glyph-name="ecircumflex" unicode="&#xea;" horiz-adv-x="588" 
d="M425 720l116 -145h-105l-72 83l-97 -83h-104l159 145h103zM484.5 78.5q-38.5 -45.5 -94 -67t-117.5 -21.5h-16q-98 0 -158 55t-60 152q0 94 35.5 167.5t102 115t155.5 41.5h16q57 0 103.5 -21.5t73.5 -62.5t27 -97q0 -11 -2 -33l-11 -76h-350q-2 -8 -3.5 -22.5
t-1.5 -22.5q0 -43 25 -69.5t70 -26.5q46 0 76 25.5t37 75.5h140q-9 -67 -47.5 -112.5zM243 390q-32 -31 -43 -79h202q2 18 2 27q0 83 -85 83q-44 0 -76 -31z" />
    <glyph glyph-name="edieresis" unicode="&#xeb;" horiz-adv-x="588" 
d="M325 720l-17 -122h-121l17 122h121zM529 720l-17 -122h-121l17 122h121zM484.5 78.5q-38.5 -45.5 -94 -67t-117.5 -21.5h-16q-98 0 -158 55t-60 152q0 94 35.5 167.5t102 115t155.5 41.5h16q57 0 103.5 -21.5t73.5 -62.5t27 -97q0 -11 -2 -33l-11 -76h-350
q-2 -8 -3.5 -22.5t-1.5 -22.5q0 -43 25 -69.5t70 -26.5q46 0 76 25.5t37 75.5h140q-9 -67 -47.5 -112.5zM243 390q-32 -31 -43 -79h202q2 18 2 27q0 83 -85 83q-44 0 -76 -31z" />
    <glyph glyph-name="igrave" unicode="&#xec;" horiz-adv-x="278" 
d="M42 717l2 3h128l72 -145h-102zM101 511h146l-71 -511h-146z" />
    <glyph glyph-name="iacute" unicode="&#xed;" horiz-adv-x="278" 
d="M224 720h129v-4l-141 -141h-101zM101 511h146l-71 -511h-146z" />
    <glyph glyph-name="icircumflex" unicode="&#xee;" horiz-adv-x="278" 
d="M249 720l116 -145h-105l-72 83l-97 -83h-104l159 145h103zM101 511h146l-71 -511h-146z" />
    <glyph glyph-name="idieresis" unicode="&#xef;" horiz-adv-x="278" 
d="M162 720l-17 -122h-121l17 122h121zM366 720l-17 -122h-121l17 122h121zM101 511h146l-71 -511h-146z" />
    <glyph glyph-name="eth" unicode="&#xf0;" horiz-adv-x="614" 
d="M235 637q-38 30 -79 55l93 42q41 -20 87 -50l88 38l37 -42l-21 -9q-22 -11 -57 -25q76 -67 122 -153t46 -178q0 -90 -34 -164t-100.5 -117.5t-158.5 -43.5h-16q-98 0 -158 55t-60 152q0 144 79 230.5t233 86.5h7q-25 43 -63 82l-95 -41l-41 42zM405 323q0 48 -25.5 73
t-68.5 25q-50 0 -85 -32t-43 -93q-13 -91 -13 -108q0 -48 25.5 -73t68.5 -25q48 0 83.5 32.5t44.5 92.5q13 99 13 108z" />
    <glyph glyph-name="ntilde" unicode="&#xf1;" 
d="M540.5 660.5q-19.5 -28.5 -51 -46.5t-68.5 -18q-22 0 -42.5 5t-47.5 15q-25 9 -41.5 13t-34.5 4q-41 0 -57 -37h-65q4 30 23.5 59t51 47t68.5 18q22 0 42.5 -5t47.5 -15q26 -9 42 -13.5t33 -4.5q20 0 35 10t23 28h65q-4 -31 -23.5 -59.5zM215 436q75 85 175 85
q70 0 114 -34.5t44 -100.5q0 -13 -3.5 -38.5t-12.5 -88.5q2 19 -36 -259h-146q47 330 47 340q0 33 -19 54t-50 21q-39 0 -71 -29.5t-38 -71.5l-44 -314h-146l72 511h109z" />
    <glyph glyph-name="ograve" unicode="&#xf2;" horiz-adv-x="606" 
d="M198 717l2 3h128l72 -145h-102zM532 147q-34 -73 -100 -115t-159 -42h-16q-98 0 -158 55t-60 152t35.5 170t101.5 113.5t156 40.5h16q97 0 157.5 -55t60.5 -152q0 -94 -34 -167zM420 323q0 48 -25.5 73t-68.5 25q-49 0 -84.5 -32.5t-43.5 -92.5q-13 -99 -13 -108
q0 -48 25.5 -73t68.5 -25q48 0 83.5 32.5t44.5 92.5q13 99 13 108z" />
    <glyph glyph-name="oacute" unicode="&#xf3;" horiz-adv-x="606" 
d="M400 720h129v-4l-141 -141h-101zM532 147q-34 -73 -100 -115t-159 -42h-16q-98 0 -158 55t-60 152t35.5 170t101.5 113.5t156 40.5h16q97 0 157.5 -55t60.5 -152q0 -94 -34 -167zM420 323q0 48 -25.5 73t-68.5 25q-49 0 -84.5 -32.5t-43.5 -92.5q-13 -99 -13 -108
q0 -48 25.5 -73t68.5 -25q48 0 83.5 32.5t44.5 92.5q13 99 13 108z" />
    <glyph glyph-name="ocircumflex" unicode="&#xf4;" horiz-adv-x="606" 
d="M416 720l116 -145h-105l-72 83l-97 -83h-104l159 145h103zM532 147q-34 -73 -100 -115t-159 -42h-16q-98 0 -158 55t-60 152t35.5 170t101.5 113.5t156 40.5h16q97 0 157.5 -55t60.5 -152q0 -94 -34 -167zM420 323q0 48 -25.5 73t-68.5 25q-49 0 -84.5 -32.5t-43.5 -92.5
q-13 -99 -13 -108q0 -48 25.5 -73t68.5 -25q48 0 83.5 32.5t44.5 92.5q13 99 13 108z" />
    <glyph glyph-name="otilde" unicode="&#xf5;" horiz-adv-x="606" 
d="M543.5 660.5q-19.5 -28.5 -51 -46.5t-68.5 -18q-22 0 -42.5 5t-47.5 15q-25 9 -41.5 13t-34.5 4q-41 0 -57 -37h-65q4 30 23.5 59t51 47t68.5 18q22 0 42.5 -5t47.5 -15q26 -9 42 -13.5t33 -4.5q20 0 35 10t23 28h65q-4 -31 -23.5 -59.5zM532 147q-34 -73 -100 -115
t-159 -42h-16q-98 0 -158 55t-60 152t35.5 170t101.5 113.5t156 40.5h16q97 0 157.5 -55t60.5 -152q0 -94 -34 -167zM420 323q0 48 -25.5 73t-68.5 25q-49 0 -84.5 -32.5t-43.5 -92.5q-13 -99 -13 -108q0 -48 25.5 -73t68.5 -25q48 0 83.5 32.5t44.5 92.5q13 99 13 108z" />
    <glyph glyph-name="odieresis" unicode="&#xf6;" horiz-adv-x="606" 
d="M320 720l-17 -122h-121l17 122h121zM524 720l-17 -122h-121l17 122h121zM532 147q-34 -73 -100 -115t-159 -42h-16q-98 0 -158 55t-60 152t35.5 170t101.5 113.5t156 40.5h16q97 0 157.5 -55t60.5 -152q0 -94 -34 -167zM420 323q0 48 -25.5 73t-68.5 25
q-49 0 -84.5 -32.5t-43.5 -92.5q-13 -99 -13 -108q0 -48 25.5 -73t68.5 -25q48 0 83.5 32.5t44.5 92.5q13 99 13 108z" />
    <glyph glyph-name="divide" unicode="&#xf7;" horiz-adv-x="600" 
d="M384 478l-16 -109h-105l16 109h105zM51 309h512l-15 -106h-512zM336 142l-15 -108h-105l15 108h105z" />
    <glyph glyph-name="oslash" unicode="&#xf8;" horiz-adv-x="606" 
d="M530 147q-34 -73 -100 -115t-159 -42h-16q-57 0 -105 20l-50 -65h-75q61 80 75 97q-63 57 -63 155q0 97 35.5 170t101.5 113.5t156 40.5h16q58 0 107 -22l28 37l24 32h75l-78 -101q62 -57 62 -153q0 -94 -34 -167zM380 405q-24 16 -56 16q-49 0 -84.5 -32.5t-43.5 -92.5
q-13 -99 -13 -108q0 -21 4 -34zM418 323q0 12 -4 30l-192 -249q21 -14 55 -14q48 0 83.5 32.5t44.5 92.5q13 99 13 108z" />
    <glyph glyph-name="ugrave" unicode="&#xf9;" horiz-adv-x="611" 
d="M185 717l2 3h128l72 -145h-102zM515 140l-4 -26q0 -12 8 -18t18 -6t22.5 4t19.5 7l-12 -90q-42 -21 -91 -21q-100 0 -106 73q-73 -73 -164 -73q-70 0 -114 34.5t-44 100.5q0 13 11 93t41 293h146q-47 -330 -47 -341q0 -37 18 -55.5t51 -18.5q39 0 71 29.5t38 71.5l44 314
h146z" />
    <glyph glyph-name="uacute" unicode="&#xfa;" horiz-adv-x="611" 
d="M405 720h129v-4l-141 -141h-101zM515 140l-4 -26q0 -12 8 -18t18 -6t22.5 4t19.5 7l-12 -90q-42 -21 -91 -21q-100 0 -106 73q-73 -73 -164 -73q-70 0 -114 34.5t-44 100.5q0 13 11 93t41 293h146q-47 -330 -47 -341q0 -37 18 -55.5t51 -18.5q39 0 71 29.5t38 71.5
l44 314h146z" />
    <glyph glyph-name="ucircumflex" unicode="&#xfb;" horiz-adv-x="611" 
d="M409 720l116 -145h-105l-72 83l-97 -83h-104l159 145h103zM515 140l-4 -26q0 -12 8 -18t18 -6t22.5 4t19.5 7l-12 -90q-42 -21 -91 -21q-100 0 -106 73q-73 -73 -164 -73q-70 0 -114 34.5t-44 100.5q0 13 11 93t41 293h146q-47 -330 -47 -341q0 -37 18 -55.5t51 -18.5
q39 0 71 29.5t38 71.5l44 314h146z" />
    <glyph glyph-name="udieresis" unicode="&#xfc;" horiz-adv-x="611" 
d="M315 720l-17 -122h-121l17 122h121zM519 720l-17 -122h-121l17 122h121zM515 140l-4 -26q0 -12 8 -18t18 -6t22.5 4t19.5 7l-12 -90q-42 -21 -91 -21q-100 0 -106 73q-73 -73 -164 -73q-70 0 -114 34.5t-44 100.5q0 13 11 93t41 293h146q-47 -330 -47 -341
q0 -37 18 -55.5t51 -18.5q39 0 71 29.5t38 71.5l44 314h146z" />
    <glyph glyph-name="yacute" unicode="&#xfd;" horiz-adv-x="545" 
d="M393 720h129v-4l-141 -141h-101zM81 -187q-53 0 -82 15l13 103q11 -5 29.5 -9.5t35.5 -4.5q64 0 104 93l-122 501h155l67 -321h6l152 321h144l-250 -483q-111 -215 -252 -215z" />
    <glyph glyph-name="thorn" unicode="&#xfe;" horiz-adv-x="597" 
d="M239 466q60 55 136 55q81 0 130 -51t49 -151q0 -81 -25.5 -156.5t-79 -124t-134.5 -48.5q-48 0 -82 20t-51 49l-34 -240h-146l127 901h146zM410 328q0 45 -22 69t-59 24q-43 0 -73.5 -31t-39.5 -90q-14 -100 -14 -111q0 -45 22 -69t59 -24q42 0 73 31t40 90
q14 100 14 111z" />
    <glyph glyph-name="ydieresis" unicode="&#xff;" horiz-adv-x="545" 
d="M301 720l-17 -122h-121l17 122h121zM505 720l-17 -122h-121l17 122h121zM81 -187q-53 0 -82 15l13 103q11 -5 29.5 -9.5t35.5 -4.5q64 0 104 93l-122 501h155l67 -321h6l152 321h144l-250 -483q-111 -215 -252 -215z" />
    <glyph glyph-name="Amacron" unicode="&#x100;" horiz-adv-x="686" 
d="M169 135l-67 -135h-148l345 686h184l152 -686h-162l-31 135h-273zM228 252h190l-54 269h-5q-74 -149 -131 -269zM277 911h318l-11 -74h-318z" />
    <glyph glyph-name="amacron" unicode="&#x101;" 
d="M503 117q0 -13 6.5 -20t18.5 -7q10 0 22 4t20 10l-14 -93q-17 -9 -41.5 -15t-48.5 -6q-98 0 -106 76q-30 -35 -70.5 -55.5t-86.5 -20.5q-83 0 -127.5 53t-44.5 148q0 91 29.5 166t84 119.5t127.5 44.5q46 0 82.5 -19.5t56.5 -53.5h6l33 63h107q-54 -374 -54 -394z
M383 322q0 45 -22 69t-59 24q-43 0 -73.5 -31t-39.5 -90q-14 -100 -14 -111q0 -45 22 -69t59 -24q42 0 73 31t40 90q14 100 14 111zM208 736h318l-11 -74h-318z" />
    <glyph glyph-name="Abreve" unicode="&#x102;" horiz-adv-x="686" 
d="M169 135l-67 -135h-148l345 686h184l152 -686h-162l-31 135h-273zM228 252h190l-54 269h-5q-74 -149 -131 -269zM321.5 805q-40.5 17 -64 44t-23.5 55q0 5 1 8h81q2 -19 32 -34.5t72 -15.5q40 0 76 16t42 34h82q-4 -29 -34.5 -58t-77.5 -47.5t-98 -18.5q-48 0 -88.5 17z
" />
    <glyph glyph-name="abreve" unicode="&#x103;" 
d="M503 117q0 -13 6.5 -20t18.5 -7q10 0 22 4t20 10l-14 -93q-17 -9 -41.5 -15t-48.5 -6q-98 0 -106 76q-30 -35 -70.5 -55.5t-86.5 -20.5q-83 0 -127.5 53t-44.5 148q0 91 29.5 166t84 119.5t127.5 44.5q46 0 82.5 -19.5t56.5 -53.5h6l33 63h107q-54 -374 -54 -394z
M383 322q0 45 -22 69t-59 24q-43 0 -73.5 -31t-39.5 -90q-14 -100 -14 -111q0 -45 22 -69t59 -24q42 0 73 31t40 90q14 100 14 111zM252.5 630q-40.5 17 -64 44t-23.5 55q0 5 1 8h81q2 -19 32 -34.5t72 -15.5q40 0 76 16t42 34h82q-4 -29 -34.5 -58t-77.5 -47.5t-98 -18.5
q-48 0 -88.5 17z" />
    <glyph glyph-name="Aogonek" unicode="&#x104;" horiz-adv-x="686" 
d="M169 135l-67 -135h-148l345 686h184l152 -686h-162l-31 135h-273zM228 252h190l-54 269h-5q-74 -149 -131 -269zM569 -143q-37 0 -62 14t-25 46q0 26 17.5 45.5t47.5 37.5h62q-56 -29 -56 -64q0 -15 11.5 -22t27.5 -7q30 0 69 14l8 -40q-46 -24 -100 -24z" />
    <glyph glyph-name="aogonek" unicode="&#x105;" 
d="M552 -79l8 -40q-46 -24 -100 -24q-37 0 -62 14t-25 46q0 24 14.5 42t40.5 35q-62 11 -68 72q-30 -35 -70.5 -55.5t-86.5 -20.5q-83 0 -127.5 53t-44.5 148q0 91 29.5 166t84 119.5t127.5 44.5q46 0 82.5 -19.5t56.5 -53.5h6l33 63h107q-54 -374 -54 -394q0 -13 6.5 -20
t18.5 -7q10 0 22 4t20 10l-14 -93q-29 -15 -72 -20q-40 -26 -40 -55q0 -15 11.5 -22t27.5 -7q31 0 69 14zM383 322q0 45 -22 69t-59 24q-43 0 -73.5 -31t-39.5 -90q-14 -100 -14 -111q0 -45 22 -69t59 -24q42 0 73 31t40 90q14 100 14 111z" />
    <glyph glyph-name="Cacute" unicode="&#x106;" horiz-adv-x="683" 
d="M522 62.5q-83 -72.5 -211 -72.5h-14q-118 0 -190 64.5t-72 182.5q0 13 4.5 49t14.5 106q13 95 59 163.5t118 104.5t161 36h14q109 0 175.5 -59t66.5 -169q0 -29 -4 -54h-147q2 13 4 39v4q0 55 -32 85.5t-85 30.5q-81 0 -118.5 -48t-51.5 -143l-5 -35q-13 -79 -13 -107
q0 -65 34 -96t95 -31q136 0 158 157h141q-19 -135 -102 -207.5zM434 895h129v-4l-141 -141h-101z" />
    <glyph glyph-name="cacute" unicode="&#x107;" horiz-adv-x="567" 
d="M182 183q0 -41 21 -67t60 -26q46 0 76.5 28.5t38.5 84.5h138q-10 -71 -47 -119t-90.5 -71t-113.5 -23h-16q-100 0 -156.5 53t-56.5 149q0 86 31.5 161t96 121.5t160.5 46.5h16q54 0 98 -21t69.5 -62t25.5 -97q0 -22 -2 -34h-145q2 18 2 27q0 41 -19 64t-58 23
q-45 0 -76.5 -36t-38.5 -89q-14 -104 -14 -113zM351 720h129v-4l-141 -141h-101z" />
    <glyph glyph-name="Ccaron" unicode="&#x10c;" horiz-adv-x="683" 
d="M522 62.5q-83 -72.5 -211 -72.5h-14q-118 0 -190 64.5t-72 182.5q0 13 4.5 49t14.5 106q13 95 59 163.5t118 104.5t161 36h14q109 0 175.5 -59t66.5 -169q0 -29 -4 -54h-147q2 13 4 39v4q0 55 -32 85.5t-85 30.5q-81 0 -118.5 -48t-51.5 -143l-5 -35q-13 -79 -13 -107
q0 -65 34 -96t95 -31q136 0 158 157h141q-19 -135 -102 -207.5zM338 895l73 -83l96 83h104l-50 -46l-108 -99h-103l-117 145h105z" />
    <glyph glyph-name="ccaron" unicode="&#x10d;" horiz-adv-x="567" 
d="M182 183q0 -41 21 -67t60 -26q46 0 76.5 28.5t38.5 84.5h138q-10 -71 -47 -119t-90.5 -71t-113.5 -23h-16q-100 0 -156.5 53t-56.5 149q0 86 31.5 161t96 121.5t160.5 46.5h16q54 0 98 -21t69.5 -62t25.5 -97q0 -22 -2 -34h-145q2 18 2 27q0 41 -19 64t-58 23
q-45 0 -76.5 -36t-38.5 -89q-14 -104 -14 -113zM255 720l73 -83l96 83h104l-50 -46l-108 -99h-103l-117 145h105z" />
    <glyph glyph-name="Dcaron" unicode="&#x10e;" horiz-adv-x="686" 
d="M395 686q73 0 130.5 -29.5t90 -84.5t32.5 -129q0 -20 -4 -50.5t-14 -98.5q-21 -146 -112.5 -220t-249.5 -74h-245l97 686h275zM301 123q66 0 110 38.5t55 110.5l7 45q7 42 11 74.5t4 57.5q0 53 -34.5 83.5t-90.5 30.5h-106l-61 -440h105zM339 895l73 -83l96 83h104
l-50 -46l-108 -99h-103l-117 145h105z" />
    <glyph glyph-name="dcaron" unicode="&#x10f;" horiz-adv-x="595" 
d="M531 375q-36 -252 -36 -258q0 -13 6.5 -20t18.5 -7q10 0 22 4t20 10l-14 -93q-17 -9 -41.5 -15t-48.5 -6q-94 0 -105 69q-66 -69 -150 -69q-81 0 -130.5 51t-49.5 151q0 75 24.5 150.5t78.5 127t137 51.5q48 0 82 -20t51 -49l38 268h146q-13 -93 -49 -345zM376 322
q0 45 -22 69t-59 24q-43 0 -73.5 -31t-39.5 -90q-14 -100 -14 -111q0 -45 22 -69t59 -24q42 0 73 31t40 90q14 100 14 111zM675 539h-63l21 147h146l-17 -123l-66 -168h-73z" />
    <glyph glyph-name="Dcroat" unicode="&#x110;" horiz-adv-x="686" 
d="M-16 303l11 80h82l43 303h275q73 0 130.5 -29.5t90 -84.5t32.5 -129q0 -20 -4 -50.5t-14 -98.5q-21 -146 -112.5 -220t-249.5 -74h-245l43 303h-82zM301 123q66 0 110 38.5t55 110.5l7 45q7 42 11 74.5t4 57.5q0 53 -34.5 83.5t-90.5 30.5h-106l-25 -180h112l-11 -80
h-112l-25 -180h105z" />
    <glyph glyph-name="dcroat" unicode="&#x111;" horiz-adv-x="595" 
d="M562 592q-6 -36 -8 -59q-59 -413 -59 -416q0 -13 6.5 -20t18.5 -7q10 0 22 4t20 10l-14 -93q-17 -9 -41.5 -15t-48.5 -6q-94 0 -105 69q-66 -69 -150 -69q-81 0 -130.5 51t-49.5 151q0 75 24.5 150.5t78.5 127t137 51.5q48 0 82 -20t51 -49l20 140h-158l13 74h155l8 54
h146l-8 -54h81l-13 -74h-78zM376 322q0 45 -22 69t-59 24q-43 0 -73.5 -31t-39.5 -90q-14 -100 -14 -111q0 -45 22 -69t59 -24q42 0 73 31t40 90q14 100 14 111z" />
    <glyph glyph-name="Emacron" unicode="&#x112;" 
d="M120 686h483l-35 -123h-314l-21 -150h293l-17 -123h-293l-23 -167h316v-123h-486zM233 911h318l-11 -74h-318z" />
    <glyph glyph-name="emacron" unicode="&#x113;" horiz-adv-x="584" 
d="M482.5 78.5q-38.5 -45.5 -94 -67t-117.5 -21.5h-16q-98 0 -158 55t-60 152q0 94 35.5 167.5t102 115t155.5 41.5h16q57 0 103.5 -21.5t73.5 -62.5t27 -97q0 -11 -2 -33l-11 -76h-350q-2 -8 -3.5 -22.5t-1.5 -22.5q0 -43 25 -69.5t70 -26.5q46 0 76 25.5t37 75.5h140
q-9 -67 -47.5 -112.5zM241 390q-32 -31 -43 -79h202q2 18 2 27q0 83 -85 83q-44 0 -76 -31zM201 736h318l-11 -74h-318z" />
    <glyph glyph-name="Edotaccent" unicode="&#x116;" 
d="M120 686h483l-35 -123h-314l-21 -150h293l-17 -123h-293l-23 -167h316v-123h-486zM426 801q-23 -22 -55 -22q-23 0 -39 16t-16 39q0 31 21.5 54t53.5 23q25 0 41.5 -17t16.5 -41q0 -30 -23 -52z" />
    <glyph glyph-name="edotaccent" unicode="&#x117;" horiz-adv-x="584" 
d="M482.5 78.5q-38.5 -45.5 -94 -67t-117.5 -21.5h-16q-98 0 -158 55t-60 152q0 94 35.5 167.5t102 115t155.5 41.5h16q57 0 103.5 -21.5t73.5 -62.5t27 -97q0 -11 -2 -33l-11 -76h-350q-2 -8 -3.5 -22.5t-1.5 -22.5q0 -43 25 -69.5t70 -26.5q46 0 76 25.5t37 75.5h140
q-9 -67 -47.5 -112.5zM241 390q-32 -31 -43 -79h202q2 18 2 27q0 83 -85 83q-44 0 -76 -31zM394 626q-23 -22 -55 -22q-23 0 -39 16t-16 39q0 31 21.5 54t53.5 23q25 0 41.5 -17t16.5 -41q0 -30 -23 -52z" />
    <glyph glyph-name="Eogonek" unicode="&#x118;" 
d="M120 686h483l-35 -123h-314l-21 -150h293l-17 -123h-293l-23 -167h316v-123h-486zM460 -143q-37 0 -62 14t-25 46q0 26 17.5 45.5t47.5 37.5h62q-56 -29 -56 -64q0 -15 11.5 -22t27.5 -7q30 0 69 14l8 -40q-46 -24 -100 -24z" />
    <glyph glyph-name="eogonek" unicode="&#x119;" horiz-adv-x="584" 
d="M449.5 499.5q46.5 -21.5 73.5 -62.5t27 -97q0 -11 -2 -33l-11 -76h-350q-2 -8 -3.5 -22.5t-1.5 -22.5q0 -43 25 -69.5t70 -26.5q46 0 76 25.5t37 75.5h140q-11 -80 -62 -128.5t-124 -64.5q-52 -28 -52 -62q0 -15 11.5 -22t27.5 -7q31 0 69 14l8 -40q-46 -24 -100 -24
q-37 0 -62 14t-25 46q0 23 13 40t36 33h-15q-98 0 -158 55t-60 152q0 94 35.5 167.5t102 115t155.5 41.5h16q57 0 103.5 -21.5zM402 338q0 83 -85 83q-44 0 -76 -31t-43 -79h202q2 18 2 27z" />
    <glyph glyph-name="Ecaron" unicode="&#x11a;" 
d="M120 686h483l-35 -123h-314l-21 -150h293l-17 -123h-293l-23 -167h316v-123h-486zM295 895l73 -83l96 83h104l-50 -46l-108 -99h-103l-117 145h105z" />
    <glyph glyph-name="ecaron" unicode="&#x11b;" horiz-adv-x="584" 
d="M482.5 78.5q-38.5 -45.5 -94 -67t-117.5 -21.5h-16q-98 0 -158 55t-60 152q0 94 35.5 167.5t102 115t155.5 41.5h16q57 0 103.5 -21.5t73.5 -62.5t27 -97q0 -11 -2 -33l-11 -76h-350q-2 -8 -3.5 -22.5t-1.5 -22.5q0 -43 25 -69.5t70 -26.5q46 0 76 25.5t37 75.5h140
q-9 -67 -47.5 -112.5zM241 390q-32 -31 -43 -79h202q2 18 2 27q0 83 -85 83q-44 0 -76 -31zM263 720l73 -83l96 83h104l-50 -46l-108 -99h-103l-117 145h105z" />
    <glyph glyph-name="Gbreve" unicode="&#x11e;" horiz-adv-x="699" 
d="M492 77q-40 -42 -90 -64.5t-116 -22.5h-5q-73 0 -128.5 30t-86 86t-30.5 132q0 26 18 154q20 142 110 223t233 81h14q67 0 121.5 -25.5t85.5 -73.5t31 -113q0 -9 -3 -42h-146q1 9 1 26q0 54 -32.5 79.5t-85.5 25.5q-48 0 -83.5 -23t-53.5 -64q-22 -48 -36 -130t-14 -116
q0 -60 32.5 -93.5t89.5 -33.5q62 0 103.5 36.5t53.5 111.5h-155l16 112h300l-33 -237q-1 -7 -7 -50.5t-6 -85.5h-85q-8 31 -13 77zM328.5 805q-40.5 17 -64 44t-23.5 55q0 5 1 8h81q2 -19 32 -34.5t72 -15.5q40 0 76 16t42 34h82q-4 -29 -34.5 -58t-77.5 -47.5t-98 -18.5
q-48 0 -88.5 17z" />
    <glyph glyph-name="gbreve" unicode="&#x11f;" horiz-adv-x="572" 
d="M196 -67.5q22 -19.5 61 -19.5q43 0 66 23t31 54t13 77q0 9 2 21q-28 -31 -68 -50t-85 -19q-78 0 -122 53t-44 140q0 79 27.5 149.5t84.5 115t141 44.5q53 0 93.5 -22t63.5 -66q20 26 62 78h53l-67 -474q-14 -106 -81.5 -164.5t-178.5 -58.5q-99 0 -159.5 43.5
t-60.5 123.5h146q0 -29 22 -48.5zM194 206q0 -42 22.5 -64.5t59.5 -22.5q43 0 74.5 29t39.5 83l3 23q9 56 9 72q0 47 -21 71t-59 24q-42 0 -73.5 -29t-40.5 -83q-14 -94 -14 -103zM239.5 630q-40.5 17 -64 44t-23.5 55q0 5 1 8h81q2 -19 32 -34.5t72 -15.5q40 0 76 16t42 34
h82q-4 -29 -34.5 -58t-77.5 -47.5t-98 -18.5q-48 0 -88.5 17z" />
    <glyph glyph-name="Gcommaaccent" unicode="&#x122;" horiz-adv-x="699" 
d="M492 77q-40 -42 -90 -64.5t-116 -22.5h-5q-73 0 -128.5 30t-86 86t-30.5 132q0 26 18 154q20 142 110 223t233 81h14q67 0 121.5 -25.5t85.5 -73.5t31 -113q0 -9 -3 -42h-146q1 9 1 26q0 54 -32.5 79.5t-85.5 25.5q-48 0 -83.5 -23t-53.5 -64q-22 -48 -36 -130t-14 -116
q0 -60 32.5 -93.5t89.5 -33.5q62 0 103.5 36.5t53.5 111.5h-155l16 112h300l-33 -237q-1 -7 -7 -50.5t-6 -85.5h-85q-8 31 -13 77zM286 -167h-63l19 137h146l-16 -113l-40 -107h-74z" />
    <glyph glyph-name="gcommaaccent" unicode="&#x123;" horiz-adv-x="572" 
d="M370 708h63l-19 -137h-146l16 113l40 107h74zM196 -67.5q22 -19.5 61 -19.5q43 0 66 23t31 54t13 77q0 9 2 21q-28 -31 -68 -50t-85 -19q-78 0 -122 53t-44 140q0 79 27.5 149.5t84.5 115t141 44.5q53 0 93.5 -22t63.5 -66q20 26 62 78h53l-67 -474
q-14 -106 -81.5 -164.5t-178.5 -58.5q-99 0 -159.5 43.5t-60.5 123.5h146q0 -29 22 -48.5zM194 206q0 -42 22.5 -64.5t59.5 -22.5q43 0 74.5 29t39.5 83l3 23q9 56 9 72q0 47 -21 71t-59 24q-42 0 -73.5 -29t-40.5 -83q-14 -94 -14 -103z" />
    <glyph glyph-name="Imacron" unicode="&#x12a;" horiz-adv-x="461" 
d="M436 686l-18 -123h-80l-61 -440h80l-18 -123h-316l18 123h81l61 440h-81l18 123h316zM155 911h318l-11 -74h-318z" />
    <glyph glyph-name="imacron" unicode="&#x12b;" horiz-adv-x="278" 
d="M101 511h146l-71 -511h-146zM48 736h318l-11 -74h-318z" />
    <glyph glyph-name="Iogonek" unicode="&#x12e;" horiz-adv-x="461" 
d="M436 686l-18 -123h-80l-61 -440h80l-18 -123h-316l18 123h81l61 440h-81l18 123h316zM277 -143q-37 0 -62 14t-25 46q0 26 17.5 45.5t47.5 37.5h62q-56 -29 -56 -64q0 -15 11.5 -22t27.5 -7q30 0 69 14l8 -40q-46 -24 -100 -24z" />
    <glyph glyph-name="iogonek" unicode="&#x12f;" horiz-adv-x="278" 
d="M283 720l-16 -115h-148l16 115h148zM116 -64q0 -15 11.5 -22t27.5 -7q30 0 69 14l8 -40q-46 -24 -100 -24q-37 0 -62 14t-25 46q0 26 17.5 45.5t47.5 37.5h-80l71 511h146l-71 -511h-4q-56 -29 -56 -64z" />
    <glyph glyph-name="Idotaccent" unicode="&#x130;" horiz-adv-x="461" 
d="M436 686l-18 -123h-80l-61 -440h80l-18 -123h-316l18 123h81l61 440h-81l18 123h316zM348 801q-23 -22 -55 -22q-23 0 -39 16t-16 39q0 31 21.5 54t53.5 23q25 0 41.5 -17t16.5 -41q0 -30 -23 -52z" />
    <glyph glyph-name="dotlessi" unicode="&#x131;" horiz-adv-x="278" 
d="M101 511h146l-71 -511h-146z" />
    <glyph glyph-name="Kcommaaccent" unicode="&#x136;" horiz-adv-x="660" 
d="M271 686l-44 -314l291 314h173l-119 -127l-153 -162l182 -397h-175l-124 278l-103 -99l-25 -179h-151l97 686h151zM266 -167h-63l19 137h146l-16 -113l-40 -107h-74z" />
    <glyph glyph-name="kcommaaccent" unicode="&#x137;" horiz-adv-x="562" 
d="M241 167l-64 -55l-16 -112h-146l101 720h146l-63 -447l213 238h165l-222 -240l158 -271h-174zM217 -167h-63l19 137h146l-16 -113l-40 -107h-74z" />
    <glyph glyph-name="Lacute" unicode="&#x139;" horiz-adv-x="533" 
d="M120 686h155l-79 -558h281v-128h-454zM279 895h129v-4l-141 -141h-101z" />
    <glyph glyph-name="lacute" unicode="&#x13a;" horiz-adv-x="279" 
d="M116 720h146l-101 -720h-146zM245 895h129v-4l-141 -141h-101z" />
    <glyph glyph-name="Lcommaaccent" unicode="&#x13b;" horiz-adv-x="533" 
d="M120 686h155l-79 -558h281v-128h-454zM203 -167h-63l19 137h146l-16 -113l-40 -107h-74z" />
    <glyph glyph-name="lcommaaccent" unicode="&#x13c;" horiz-adv-x="279" 
d="M116 720h146l-101 -720h-146zM76 -167h-63l19 137h146l-16 -113l-40 -107h-74z" />
    <glyph glyph-name="Lcaron" unicode="&#x13d;" horiz-adv-x="533" 
d="M120 686h155l-79 -558h281v-128h-454zM455 539h-63l21 147h146l-17 -123l-66 -168h-73z" />
    <glyph glyph-name="lcaron" unicode="&#x13e;" horiz-adv-x="279" 
d="M116 720h146l-101 -720h-146zM394 539h-63l21 147h146l-17 -123l-66 -168h-73z" />
    <glyph glyph-name="Lslash" unicode="&#x141;" horiz-adv-x="546" 
d="M79 394l41 292h155l-30 -214l123 58l-13 -88l-123 -58l-36 -256h277v-128h-450l43 306l-67 -32l11 88q16 7 69 32z" />
    <glyph glyph-name="lslash" unicode="&#x142;" horiz-adv-x="279" 
d="M70 390l46 330h146l-36 -256l76 36l-12 -88l-76 -35l-53 -377h-146l42 303l-25 -12q-41 -20 -48 -23l12 87q14 7 74 35z" />
    <glyph glyph-name="Nacute" unicode="&#x143;" horiz-adv-x="691" 
d="M268 316q-13 25 -25.5 52t-17.5 37l-4 -3l-57 -402h-141l97 686h131l171 -318q14 -25 23 -47q4 -8 9 -18.5t11 -22.5l3 3l57 403h141l-97 -686h-131zM438 895h129v-4l-141 -141h-101z" />
    <glyph glyph-name="nacute" unicode="&#x144;" horiz-adv-x="597" 
d="M215 436q75 85 175 85q70 0 114 -34.5t44 -100.5q0 -13 -3.5 -38.5t-12.5 -88.5q2 19 -36 -259h-146q47 330 47 340q0 33 -19 54t-50 21q-39 0 -71 -29.5t-38 -71.5l-44 -314h-146l72 511h109zM366 720h129v-4l-141 -141h-101z" />
    <glyph glyph-name="Ncommaaccent" unicode="&#x145;" horiz-adv-x="691" 
d="M268 316q-13 25 -25.5 52t-17.5 37l-4 -3l-57 -402h-141l97 686h131l171 -318q14 -25 23 -47q4 -8 9 -18.5t11 -22.5l3 3l57 403h141l-97 -686h-131zM282 -167h-63l19 137h146l-16 -113l-40 -107h-74z" />
    <glyph glyph-name="ncommaaccent" unicode="&#x146;" horiz-adv-x="597" 
d="M215 436q75 85 175 85q70 0 114 -34.5t44 -100.5q0 -13 -3.5 -38.5t-12.5 -88.5q2 19 -36 -259h-146q47 330 47 340q0 33 -19 54t-50 21q-39 0 -71 -29.5t-38 -71.5l-44 -314h-146l72 511h109zM235 -167h-63l19 137h146l-16 -113l-40 -107h-74z" />
    <glyph glyph-name="Ncaron" unicode="&#x147;" horiz-adv-x="691" 
d="M268 316q-13 25 -25.5 52t-17.5 37l-4 -3l-57 -402h-141l97 686h131l171 -318q14 -25 23 -47q4 -8 9 -18.5t11 -22.5l3 3l57 403h141l-97 -686h-131zM342 895l73 -83l96 83h104l-50 -46l-108 -99h-103l-117 145h105z" />
    <glyph glyph-name="ncaron" unicode="&#x148;" horiz-adv-x="597" 
d="M215 436q75 85 175 85q70 0 114 -34.5t44 -100.5q0 -13 -3.5 -38.5t-12.5 -88.5q2 19 -36 -259h-146q47 330 47 340q0 33 -19 54t-50 21q-39 0 -71 -29.5t-38 -71.5l-44 -314h-146l72 511h109zM270 720l73 -83l96 83h104l-50 -46l-108 -99h-103l-117 145h105z" />
    <glyph glyph-name="Omacron" unicode="&#x14c;" horiz-adv-x="708" 
d="M535 67.5q-96 -77.5 -246 -77.5q-73 0 -130.5 30.5t-90 87.5t-32.5 133q0 17 2 35t7 51l9 64q21 148 117 226t245 78q73 0 130.5 -30.5t90 -88t32.5 -133.5q0 -20 -3.5 -50.5t-13.5 -98.5q-21 -149 -117 -226.5zM494 317q7 42 11 74.5t4 57.5q0 57 -34.5 90.5t-90.5 33.5
q-74 0 -116 -47t-53 -136q0 -2 -7 -46q-5 -35 -8 -62t-3 -46q0 -57 34 -90t91 -33q67 0 110.5 41t54.5 118zM288 911h318l-11 -74h-318z" />
    <glyph glyph-name="omacron" unicode="&#x14d;" horiz-adv-x="602" 
d="M530 147q-34 -73 -100 -115t-159 -42h-16q-98 0 -158 55t-60 152t35.5 170t101.5 113.5t156 40.5h16q97 0 157.5 -55t60.5 -152q0 -94 -34 -167zM418 323q0 48 -25.5 73t-68.5 25q-49 0 -84.5 -32.5t-43.5 -92.5q-13 -99 -13 -108q0 -48 25.5 -73t68.5 -25
q48 0 83.5 32.5t44.5 92.5q13 99 13 108zM210 736h318l-11 -74h-318z" />
    <glyph glyph-name="Ohungarumlaut" unicode="&#x150;" horiz-adv-x="708" 
d="M535 67.5q-96 -77.5 -246 -77.5q-73 0 -130.5 30.5t-90 87.5t-32.5 133q0 17 2 35t7 51l9 64q21 148 117 226t245 78q73 0 130.5 -30.5t90 -88t32.5 -133.5q0 -20 -3.5 -50.5t-13.5 -98.5q-21 -149 -117 -226.5zM494 317q7 42 11 74.5t4 57.5q0 57 -34.5 90.5t-90.5 33.5
q-74 0 -116 -47t-53 -136q0 -2 -7 -46q-5 -35 -8 -62t-3 -46q0 -57 34 -90t91 -33q67 0 110.5 41t54.5 118zM341 895h128l1 -3l-141 -142h-102zM532 895h128l1 -3l-141 -142h-102z" />
    <glyph glyph-name="ohungarumlaut" unicode="&#x151;" horiz-adv-x="602" 
d="M530 147q-34 -73 -100 -115t-159 -42h-16q-98 0 -158 55t-60 152t35.5 170t101.5 113.5t156 40.5h16q97 0 157.5 -55t60.5 -152q0 -94 -34 -167zM418 323q0 48 -25.5 73t-68.5 25q-49 0 -84.5 -32.5t-43.5 -92.5q-13 -99 -13 -108q0 -48 25.5 -73t68.5 -25
q48 0 83.5 32.5t44.5 92.5q13 99 13 108zM263 720h128l1 -3l-141 -142h-102zM454 720h128l1 -3l-141 -142h-102z" />
    <glyph glyph-name="OE" unicode="&#x152;" horiz-adv-x="1024" 
d="M459 32q-73 -42 -170 -42q-73 0 -130.5 30.5t-90 87.5t-32.5 133q0 17 2 35t7 51l9 64q13 98 62.5 166.5t124.5 103t165 34.5q80 0 141 -41l5 32h474l-35 -123h-300l-21 -150h279l-17 -123h-279l-23 -167h302v-123h-477zM494 317q7 42 11 74.5t4 57.5q0 57 -34.5 90.5
t-90.5 33.5q-74 0 -116 -47t-53 -136q0 -2 -7 -46q-5 -35 -8 -62t-3 -46q0 -57 34 -90t91 -33q67 0 110.5 41t54.5 118z" />
    <glyph glyph-name="oe" unicode="&#x153;" horiz-adv-x="946" 
d="M438.5 505q42.5 -16 71.5 -45q75 61 182 61h16q57 0 103.5 -21.5t73.5 -62.5t27 -97q0 -11 -2 -33l-11 -76h-350q-2 -8 -3.5 -22.5t-1.5 -22.5q0 -43 25 -69.5t70 -26.5q46 0 76 25.5t37 75.5h140q-9 -67 -47.5 -112.5t-94 -67t-117.5 -21.5h-16q-51 0 -92.5 15t-70.5 44
q-73 -59 -183 -59h-16q-98 0 -158 55t-60 152t35.5 170t101.5 113.5t156 40.5h16q50 0 92.5 -16zM418 323q0 48 -25.5 73t-68.5 25q-49 0 -84.5 -32.5t-43.5 -92.5q-13 -99 -13 -108q0 -48 25.5 -73t68.5 -25q48 0 83.5 32.5t44.5 92.5q13 99 13 108zM603 390
q-32 -31 -43 -79h202q2 18 2 27q0 83 -85 83q-44 0 -76 -31z" />
    <glyph glyph-name="Racute" unicode="&#x154;" horiz-adv-x="665" 
d="M176 0h-152l96 686h307q94 0 151 -34t57 -110q0 -67 -38 -120.5t-108 -66.5l-1 -7q36 -12 61 -47t25 -94l-4 -51l-3 -43q0 -60 38 -73l-4 -34q-35 -13 -89 -13q-50 0 -76 20.5t-26 72.5q0 13 4 47q4 32 4 43q0 53 -23 80.5t-62 27.5h-117zM448 431.5q27 26.5 27 66.5
q0 28 -19 46.5t-51 18.5h-150l-22 -158h150q38 0 65 26.5zM425 895h129v-4l-141 -141h-101z" />
    <glyph glyph-name="racute" unicode="&#x155;" horiz-adv-x="489" 
d="M364 351q0 26 -14.5 43.5t-46.5 17.5q-36 0 -58 -27.5t-28 -68.5l-44 -316h-144l72 511h108l7 -75q6 11 25.5 31t53 37t76.5 17q61 0 92.5 -34t31.5 -91q0 -14 -5 -44.5t-8 -38.5h-122q4 28 4 38zM312 720h129v-4l-141 -141h-101z" />
    <glyph glyph-name="Rcommaaccent" unicode="&#x156;" horiz-adv-x="665" 
d="M176 0h-152l96 686h307q94 0 151 -34t57 -110q0 -67 -38 -120.5t-108 -66.5l-1 -7q36 -12 61 -47t25 -94l-4 -51l-3 -43q0 -60 38 -73l-4 -34q-35 -13 -89 -13q-50 0 -76 20.5t-26 72.5q0 13 4 47q4 32 4 43q0 53 -23 80.5t-62 27.5h-117zM448 431.5q27 26.5 27 66.5
q0 28 -19 46.5t-51 18.5h-150l-22 -158h150q38 0 65 26.5zM269 -167h-63l19 137h146l-16 -113l-40 -107h-74z" />
    <glyph glyph-name="rcommaaccent" unicode="&#x157;" horiz-adv-x="489" 
d="M364 351q0 26 -14.5 43.5t-46.5 17.5q-36 0 -58 -27.5t-28 -68.5l-44 -316h-144l72 511h108l7 -75q6 11 25.5 31t53 37t76.5 17q61 0 92.5 -34t31.5 -91q0 -14 -5 -44.5t-8 -38.5h-122q4 28 4 38zM73 -167h-63l19 137h146l-16 -113l-40 -107h-74z" />
    <glyph glyph-name="Rcaron" unicode="&#x158;" horiz-adv-x="665" 
d="M176 0h-152l96 686h307q94 0 151 -34t57 -110q0 -67 -38 -120.5t-108 -66.5l-1 -7q36 -12 61 -47t25 -94l-4 -51l-3 -43q0 -60 38 -73l-4 -34q-35 -13 -89 -13q-50 0 -76 20.5t-26 72.5q0 13 4 47q4 32 4 43q0 53 -23 80.5t-62 27.5h-117zM448 431.5q27 26.5 27 66.5
q0 28 -19 46.5t-51 18.5h-150l-22 -158h150q38 0 65 26.5zM329 895l73 -83l96 83h104l-50 -46l-108 -99h-103l-117 145h105z" />
    <glyph glyph-name="rcaron" unicode="&#x159;" horiz-adv-x="489" 
d="M364 351q0 26 -14.5 43.5t-46.5 17.5q-36 0 -58 -27.5t-28 -68.5l-44 -316h-144l72 511h108l7 -75q6 11 25.5 31t53 37t76.5 17q61 0 92.5 -34t31.5 -91q0 -14 -5 -44.5t-8 -38.5h-122q4 28 4 38zM216 720l73 -83l96 83h104l-50 -46l-108 -99h-103l-117 145h105z" />
    <glyph glyph-name="Sacute" unicode="&#x15a;" horiz-adv-x="635" 
d="M499 56q-79 -66 -237 -66q-110 0 -180 44t-70 134q0 30 7 56h146q-5 -7 -5 -31q0 -37 29 -57.5t85 -20.5q72 0 107.5 22t35.5 63q0 33 -32.5 49.5t-99.5 32.5q-68 17 -111.5 35t-74.5 55t-31 99q0 109 83 167t217 58q104 0 169 -42.5t65 -127.5q0 -22 -4 -43h-145
q3 15 3 23q0 32 -27.5 50.5t-74.5 18.5q-58 0 -92.5 -19.5t-34.5 -55.5q0 -33 33 -49.5t101 -32.5q69 -17 112 -34t74 -53t31 -95q0 -114 -79 -180zM410 895h129v-4l-141 -141h-101z" />
    <glyph glyph-name="sacute" unicode="&#x15b;" horiz-adv-x="539" 
d="M143 146q0 -30 28 -43t71 -13t76.5 13t33.5 43q0 24 -26.5 34.5t-83.5 20.5q-57 9 -94.5 21t-64 38.5t-26.5 73.5q0 60 35 102t91.5 63.5t120.5 21.5h20q49 0 92 -15.5t69 -43.5t26 -65q0 -17 -3 -26t-3 -10h-128l1 10q0 50 -84 50q-45 0 -72.5 -13.5t-27.5 -36.5
q0 -22 25.5 -31t81.5 -18q60 -10 97.5 -21t65.5 -38t28 -76q0 -103 -74 -150t-179 -47h-33q-87 0 -140.5 36.5t-53.5 97.5q0 19 4 39h128zM337 720h129v-4l-141 -141h-101z" />
    <glyph glyph-name="Scedilla" unicode="&#x15e;" horiz-adv-x="635" 
d="M499 56q-79 -66 -237 -66q-110 0 -180 44t-70 134q0 30 7 56h146q-5 -7 -5 -31q0 -37 29 -57.5t85 -20.5q72 0 107.5 22t35.5 63q0 33 -32.5 49.5t-99.5 32.5q-68 17 -111.5 35t-74.5 55t-31 99q0 109 83 167t217 58q104 0 169 -42.5t65 -127.5q0 -22 -4 -43h-145
q3 15 3 23q0 32 -27.5 50.5t-74.5 18.5q-58 0 -92.5 -19.5t-34.5 -55.5q0 -33 33 -49.5t101 -32.5q69 -17 112 -34t74 -53t31 -95q0 -114 -79 -180zM197 -129.5q19 -12.5 59 -12.5q23 0 38.5 10.5t15.5 32.5q0 31 -40 31h-20l7 51h23q46 0 75.5 -16.5t29.5 -57.5
q0 -59 -42 -82.5t-91 -23.5q-29 0 -58 7.5t-46 21.5l28 52q2 -1 21 -13.5z" />
    <glyph glyph-name="scedilla" unicode="&#x15f;" horiz-adv-x="539" 
d="M143 146q0 -30 28 -43t71 -13t76.5 13t33.5 43q0 24 -26.5 34.5t-83.5 20.5q-57 9 -94.5 21t-64 38.5t-26.5 73.5q0 60 35 102t91.5 63.5t120.5 21.5h20q49 0 92 -15.5t69 -43.5t26 -65q0 -17 -3 -26t-3 -10h-128l1 10q0 50 -84 50q-45 0 -72.5 -13.5t-27.5 -36.5
q0 -22 25.5 -31t81.5 -18q60 -10 97.5 -21t65.5 -38t28 -76q0 -103 -74 -150t-179 -47h-33q-87 0 -140.5 36.5t-53.5 97.5q0 19 4 39h128zM149 -129.5q19 -12.5 59 -12.5q23 0 38.5 10.5t15.5 32.5q0 31 -40 31h-20l7 51h23q46 0 75.5 -16.5t29.5 -57.5q0 -59 -42 -82.5
t-91 -23.5q-29 0 -58 7.5t-46 21.5l28 52q2 -1 21 -13.5z" />
    <glyph glyph-name="Scaron" unicode="&#x160;" horiz-adv-x="635" 
d="M302 895l73 -83l96 83h104l-50 -46l-108 -99h-103l-117 145h105zM499 56q-79 -66 -237 -66q-110 0 -180 44t-70 134q0 30 7 56h146q-5 -7 -5 -31q0 -37 29 -57.5t85 -20.5q72 0 107.5 22t35.5 63q0 33 -32.5 49.5t-99.5 32.5q-68 17 -111.5 35t-74.5 55t-31 99
q0 109 83 167t217 58q104 0 169 -42.5t65 -127.5q0 -22 -4 -43h-145q3 15 3 23q0 32 -27.5 50.5t-74.5 18.5q-58 0 -92.5 -19.5t-34.5 -55.5q0 -33 33 -49.5t101 -32.5q69 -17 112 -34t74 -53t31 -95q0 -114 -79 -180z" />
    <glyph glyph-name="scaron" unicode="&#x161;" horiz-adv-x="541" 
d="M246 720l73 -83l96 83h104l-50 -46l-108 -99h-103l-117 145h105zM143 146q0 -30 28 -43t71 -13t76.5 13t33.5 43q0 24 -26.5 34.5t-83.5 20.5q-57 9 -94.5 21t-64 38.5t-26.5 73.5q0 60 35 102t91.5 63.5t120.5 21.5h20q49 0 92 -15.5t69 -43.5t26 -65q0 -17 -3 -26
t-3 -10h-128l1 10q0 50 -84 50q-45 0 -72.5 -13.5t-27.5 -36.5q0 -22 25.5 -31t81.5 -18q60 -10 97.5 -21t65.5 -38t28 -76q0 -103 -74 -150t-179 -47h-33q-87 0 -140.5 36.5t-53.5 97.5q0 19 4 39h128z" />
    <glyph glyph-name="uni0162" unicode="&#x162;" horiz-adv-x="557" 
d="M306 0h-153l79 562h-195l18 124h542l-18 -124h-194zM145 -129.5q19 -12.5 59 -12.5q23 0 38.5 10.5t15.5 32.5q0 31 -40 31h-20l7 51h23q46 0 75.5 -16.5t29.5 -57.5q0 -59 -42 -82.5t-91 -23.5q-29 0 -58 7.5t-46 21.5l28 52q2 -1 21 -13.5z" />
    <glyph glyph-name="uni0163" unicode="&#x163;" horiz-adv-x="371" 
d="M243 -4.5q-34 -5.5 -59 -5.5q-68 0 -102.5 25.5t-34.5 83.5q0 11 9 77t33 235h-56l14 100h57l23 163h154l-32 -163h119l-14 -100h-119q-26 -182 -27 -190q-11 -72 -11 -82q0 -29 13.5 -39t35.5 -10q12 0 32 4t32 9l-13 -94q-20 -8 -54 -13.5zM65 -129.5
q19 -12.5 59 -12.5q23 0 38.5 10.5t15.5 32.5q0 31 -40 31h-20l7 51h23q46 0 75.5 -16.5t29.5 -57.5q0 -59 -42 -82.5t-91 -23.5q-29 0 -58 7.5t-46 21.5l28 52q2 -1 21 -13.5z" />
    <glyph glyph-name="Tcaron" unicode="&#x164;" horiz-adv-x="557" 
d="M306 0h-153l79 562h-195l18 124h542l-18 -124h-194zM275 895l73 -83l96 83h104l-50 -46l-108 -99h-103l-117 145h105z" />
    <glyph glyph-name="tcaron" unicode="&#x165;" horiz-adv-x="371" 
d="M243 -4.5q-34 -5.5 -59 -5.5q-68 0 -102.5 25.5t-34.5 83.5q0 11 9 77t33 235h-56l14 100h57l23 163h154l-32 -163h119l-14 -100h-119q-26 -182 -27 -190q-11 -72 -11 -82q0 -29 13.5 -39t35.5 -10q12 0 32 4t32 9l-13 -94q-20 -8 -54 -13.5zM438 539h-63l21 147h146
l-17 -123l-66 -168h-73z" />
    <glyph glyph-name="Umacron" unicode="&#x16a;" horiz-adv-x="673" 
d="M498 51q-79 -61 -197 -61h-28q-106 0 -167.5 51.5t-61.5 139.5q0 13 14.5 119.5t53.5 385.5h154q-66 -471 -66 -481q0 -42 28.5 -67.5t76.5 -25.5q53 0 89.5 30.5t43.5 78.5l65 465h154l-65 -468q-15 -106 -94 -167zM271 911h318l-11 -74h-318z" />
    <glyph glyph-name="umacron" unicode="&#x16b;" horiz-adv-x="612" 
d="M515 140l-4 -26q0 -12 8 -18t18 -6t22.5 4t19.5 7l-12 -90q-42 -21 -91 -21q-100 0 -106 73q-73 -73 -164 -73q-70 0 -114 34.5t-44 100.5q0 13 11 93t41 293h146q-47 -330 -47 -341q0 -37 18 -55.5t51 -18.5q39 0 71 29.5t38 71.5l44 314h146zM215 736h318l-11 -74h-318
z" />
    <glyph glyph-name="Uring" unicode="&#x16e;" horiz-adv-x="673" 
d="M498 51q-79 -61 -197 -61h-28q-106 0 -167.5 51.5t-61.5 139.5q0 13 14.5 119.5t53.5 385.5h154q-66 -471 -66 -481q0 -42 28.5 -67.5t76.5 -25.5q53 0 89.5 30.5t43.5 78.5l65 465h154l-65 -468q-15 -106 -94 -167zM485.5 752.5q-33.5 -32.5 -78.5 -32.5q-40 0 -66 25.5
t-26 64.5q0 46 34 78.5t79 32.5q39 0 65 -25.5t26 -64.5q0 -46 -33.5 -78.5zM448.5 787.5q15.5 14.5 15.5 36.5q0 19 -12 31.5t-31 12.5q-21 0 -35.5 -15t-14.5 -37q0 -18 12 -30.5t30 -12.5q20 0 35.5 14.5z" />
    <glyph glyph-name="uring" unicode="&#x16f;" horiz-adv-x="612" 
d="M515 140l-4 -26q0 -12 8 -18t18 -6t22.5 4t19.5 7l-12 -90q-42 -21 -91 -21q-100 0 -106 73q-73 -73 -164 -73q-70 0 -114 34.5t-44 100.5q0 13 11 93t41 293h146q-47 -330 -47 -341q0 -37 18 -55.5t51 -18.5q39 0 71 29.5t38 71.5l44 314h146zM429.5 577.5
q-33.5 -32.5 -78.5 -32.5q-40 0 -66 25.5t-26 64.5q0 46 34 78.5t79 32.5q39 0 65 -25.5t26 -64.5q0 -46 -33.5 -78.5zM392.5 612.5q15.5 14.5 15.5 36.5q0 19 -12 31.5t-31 12.5q-21 0 -35.5 -15t-14.5 -37q0 -18 12 -30.5t30 -12.5q20 0 35.5 14.5z" />
    <glyph glyph-name="Uhungarumlaut" unicode="&#x170;" horiz-adv-x="673" 
d="M498 51q-79 -61 -197 -61h-28q-106 0 -167.5 51.5t-61.5 139.5q0 13 14.5 119.5t53.5 385.5h154q-66 -471 -66 -481q0 -42 28.5 -67.5t76.5 -25.5q53 0 89.5 30.5t43.5 78.5l65 465h154l-65 -468q-15 -106 -94 -167zM324 895h128l1 -3l-141 -142h-102zM515 895h128l1 -3
l-141 -142h-102z" />
    <glyph glyph-name="uhungarumlaut" unicode="&#x171;" horiz-adv-x="612" 
d="M515 140l-4 -26q0 -12 8 -18t18 -6t22.5 4t19.5 7l-12 -90q-42 -21 -91 -21q-100 0 -106 73q-73 -73 -164 -73q-70 0 -114 34.5t-44 100.5q0 13 11 93t41 293h146q-47 -330 -47 -341q0 -37 18 -55.5t51 -18.5q39 0 71 29.5t38 71.5l44 314h146zM268 720h128l1 -3
l-141 -142h-102zM459 720h128l1 -3l-141 -142h-102z" />
    <glyph glyph-name="Uogonek" unicode="&#x172;" horiz-adv-x="673" 
d="M657 686l-65 -468q-13 -90 -71.5 -147.5t-149.5 -74.5q-21 -11 -35 -26.5t-14 -33.5q0 -15 11.5 -22t27.5 -7q31 0 69 14l8 -40q-46 -24 -100 -24q-37 0 -62 14t-25 46q0 23 13 40t36 33h-27q-106 0 -167.5 51.5t-61.5 139.5q0 13 14.5 119.5t53.5 385.5h154
q-66 -471 -66 -481q0 -42 28.5 -67.5t76.5 -25.5q53 0 89.5 30.5t43.5 78.5l65 465h154z" />
    <glyph glyph-name="uogonek" unicode="&#x173;" horiz-adv-x="612" 
d="M565 -79l8 -40q-46 -24 -100 -24q-37 0 -62 14t-25 46q0 41 54 76q-65 12 -70 70q-73 -73 -164 -73q-70 0 -114 34.5t-44 100.5q0 13 11 93t41 293h146q-47 -330 -47 -341q0 -37 18 -55.5t51 -18.5q39 0 71 29.5t38 71.5l44 314h146l-52 -371l-4 -26q0 -12 8 -18t18 -6
t22.5 4t19.5 7l-12 -90q-1 -1 -18.5 -8.5t-51.5 -11.5q-40 -26 -40 -55q0 -15 11.5 -22t27.5 -7q31 0 69 14z" />
    <glyph glyph-name="Ydieresis" unicode="&#x178;" horiz-adv-x="637" 
d="M355 872l-17 -122h-121l17 122h121zM559 872l-17 -122h-121l17 122h121zM347 0h-154l37 263l-175 423h174l104 -272h5l182 272h158l-294 -423z" />
    <glyph glyph-name="Zacute" unicode="&#x179;" horiz-adv-x="631" 
d="M0 49l388 514h-292l18 123h515l-7 -50l-387 -513h323l-18 -123h-546zM408 895h129v-4l-141 -141h-101z" />
    <glyph glyph-name="zacute" unicode="&#x17a;" horiz-adv-x="486" 
d="M7 50l268 361h-205l14 100h398l-6 -49l-270 -362h227l-14 -100h-419zM310 720h129v-4l-141 -141h-101z" />
    <glyph glyph-name="Zdotaccent" unicode="&#x17b;" horiz-adv-x="631" 
d="M0 49l388 514h-292l18 123h515l-7 -50l-387 -513h323l-18 -123h-546zM443 801q-23 -22 -55 -22q-23 0 -39 16t-16 39q0 31 21.5 54t53.5 23q25 0 41.5 -17t16.5 -41q0 -30 -23 -52z" />
    <glyph glyph-name="zdotaccent" unicode="&#x17c;" horiz-adv-x="486" 
d="M7 50l268 361h-205l14 100h398l-6 -49l-270 -362h227l-14 -100h-419zM345 626q-23 -22 -55 -22q-23 0 -39 16t-16 39q0 31 21.5 54t53.5 23q25 0 41.5 -17t16.5 -41q0 -30 -23 -52z" />
    <glyph glyph-name="Zcaron" unicode="&#x17d;" horiz-adv-x="631" 
d="M304 895l73 -83l96 83h104l-50 -46l-108 -99h-103l-117 145h105zM0 49l388 514h-292l18 123h515l-7 -50l-387 -513h323l-18 -123h-546z" />
    <glyph glyph-name="zcaron" unicode="&#x17e;" horiz-adv-x="486" 
d="M214 720l73 -83l96 83h104l-50 -46l-108 -99h-103l-117 145h105zM7 50l268 361h-205l14 100h398l-6 -49l-270 -362h227l-14 -100h-419z" />
    <glyph glyph-name="florin" unicode="&#x192;" horiz-adv-x="381" 
d="M368 626q-18 4 -29 4q-28 0 -42.5 -12.5t-20.5 -36.5t-11 -70h120l-15 -100h-119q-36 -258 -57 -412q-24 -184 -189 -184q-26 0 -54.5 5.5t-44.5 14.5l12 91q11 -5 29.5 -9t30.5 -4q28 0 44.5 15.5t21.5 50.5q30 221 61 432h-60l13 100h61l9 63q12 81 56.5 117.5
t119.5 36.5q25 0 57 -5.5t50 -15.5l-12 -89q-13 4 -31 8z" />
    <glyph glyph-name="Scommaaccent" unicode="&#x218;" horiz-adv-x="635" 
d="M499 56q-79 -66 -237 -66q-110 0 -180 44t-70 134q0 30 7 56h146q-5 -7 -5 -31q0 -37 29 -57.5t85 -20.5q72 0 107.5 22t35.5 63q0 33 -32.5 49.5t-99.5 32.5q-68 17 -111.5 35t-74.5 55t-31 99q0 109 83 167t217 58q104 0 169 -42.5t65 -127.5q0 -22 -4 -43h-145
q3 15 3 23q0 32 -27.5 50.5t-74.5 18.5q-58 0 -92.5 -19.5t-34.5 -55.5q0 -33 33 -49.5t101 -32.5q69 -17 112 -34t74 -53t31 -95q0 -114 -79 -180zM254 -167h-63l19 137h146l-16 -113l-40 -107h-74z" />
    <glyph glyph-name="scommaaccent" unicode="&#x219;" horiz-adv-x="539" 
d="M143 146q0 -30 28 -43t71 -13t76.5 13t33.5 43q0 24 -26.5 34.5t-83.5 20.5q-57 9 -94.5 21t-64 38.5t-26.5 73.5q0 60 35 102t91.5 63.5t120.5 21.5h20q49 0 92 -15.5t69 -43.5t26 -65q0 -17 -3 -26t-3 -10h-128l1 10q0 50 -84 50q-45 0 -72.5 -13.5t-27.5 -36.5
q0 -22 25.5 -31t81.5 -18q60 -10 97.5 -21t65.5 -38t28 -76q0 -103 -74 -150t-179 -47h-33q-87 0 -140.5 36.5t-53.5 97.5q0 19 4 39h128zM206 -167h-63l19 137h146l-16 -113l-40 -107h-74z" />
    <glyph glyph-name="uni021A" unicode="&#x21a;" horiz-adv-x="557" 
d="M306 0h-153l79 562h-195l18 124h542l-18 -124h-194zM202 -167h-63l19 137h146l-16 -113l-40 -107h-74z" />
    <glyph glyph-name="uni021B" unicode="&#x21b;" horiz-adv-x="371" 
d="M243 -4.5q-34 -5.5 -59 -5.5q-68 0 -102.5 25.5t-34.5 83.5q0 11 9 77t33 235h-56l14 100h57l23 163h154l-32 -163h119l-14 -100h-119q-26 -182 -27 -190q-11 -72 -11 -82q0 -29 13.5 -39t35.5 -10q12 0 32 4t32 9l-13 -94q-20 -8 -54 -13.5zM122 -167h-63l19 137h146
l-16 -113l-40 -107h-74z" />
    <glyph glyph-name="circumflex" unicode="&#x2c6;" horiz-adv-x="538" 
d="M329 720l116 -145h-105l-72 83l-97 -83h-104l159 145h103z" />
    <glyph glyph-name="caron" unicode="&#x2c7;" horiz-adv-x="538" 
d="M193 720l73 -83l96 83h104l-50 -46l-108 -99h-103l-117 145h105z" />
    <glyph glyph-name="uni02C9" unicode="&#x2c9;" horiz-adv-x="460" 
d="M76 736h318l-11 -74h-318z" />
    <glyph glyph-name="breve" unicode="&#x2d8;" horiz-adv-x="520" 
d="M162.5 630q-40.5 17 -64 44t-23.5 55q0 5 1 8h81q2 -19 32 -34.5t72 -15.5q40 0 76 16t42 34h82q-4 -29 -34.5 -58t-77.5 -47.5t-98 -18.5q-48 0 -88.5 17z" />
    <glyph glyph-name="dotaccent" unicode="&#x2d9;" horiz-adv-x="280" 
d="M183 626q-23 -22 -55 -22q-23 0 -39 16t-16 39q0 31 21.5 54t53.5 23q25 0 41.5 -17t16.5 -41q0 -30 -23 -52z" />
    <glyph glyph-name="ring" unicode="&#x2da;" horiz-adv-x="340" 
d="M236.5 577.5q-33.5 -32.5 -78.5 -32.5q-40 0 -66 25.5t-26 64.5q0 46 34 78.5t79 32.5q39 0 65 -25.5t26 -64.5q0 -46 -33.5 -78.5zM199.5 612.5q15.5 14.5 15.5 36.5q0 19 -12 31.5t-31 12.5q-21 0 -35.5 -15t-14.5 -37q0 -18 12 -30.5t30 -12.5q20 0 35.5 14.5z" />
    <glyph glyph-name="ogonek" unicode="&#x2db;" horiz-adv-x="340" 
d="M155 -143q-37 0 -62 14t-25 46q0 26 17.5 45.5t47.5 37.5h62q-56 -29 -56 -64q0 -15 11.5 -22t27.5 -7q30 0 69 14l8 -40q-46 -24 -100 -24z" />
    <glyph glyph-name="tilde" unicode="&#x2dc;" horiz-adv-x="348" 
d="M382.5 658.5q-19.5 -28.5 -51 -46.5t-68.5 -18q-22 0 -42.5 5t-47.5 15q-25 9 -41.5 13t-34.5 4q-41 0 -57 -37h-65q4 30 23.5 59t51 47t68.5 18q22 0 42.5 -5t47.5 -15q26 -9 42 -13.5t33 -4.5q20 0 35 10t23 28h65q-4 -31 -23.5 -59.5z" />
    <glyph glyph-name="hungarumlaut" unicode="&#x2dd;" horiz-adv-x="498" 
d="M145 720h128l1 -3l-141 -142h-102zM336 720h128l1 -3l-141 -142h-102z" />
    <glyph glyph-name="uni0326" unicode="&#x326;" horiz-adv-x="0" 
d="M-173 -167h-63l19 137h146l-16 -113l-40 -107h-74z" />
    <glyph glyph-name="uni0394" unicode="&#x394;" horiz-adv-x="673" 
d="M337 686h121l143 -607l-11 -79h-578l11 79zM487 92l-107 469l-239 -469h346z" />
    <glyph glyph-name="uni03A9" unicode="&#x3a9;" horiz-adv-x="724" 
d="M643 252q-33 -77 -111 -141q10 2 30 4l70 11h23l-17 -126h-284l9 67q63 17 90.5 68.5t41.5 153.5q17 120 17 150q0 68 -29.5 101.5t-89.5 33.5q-77 0 -116 -48t-52 -145q-11 -79 -16 -121.5t-5 -64.5q0 -53 17.5 -84.5t59.5 -43.5l-9 -67h-284l16 126h23l28 -5
q13 -2 30 -4.5t39 -5.5q-72 74 -72 182q0 106 38.5 197.5t115 147.5t186.5 56h36q72 0 128 -29.5t88 -86.5t32 -136q0 -113 -33 -190z" />
    <glyph glyph-name="uni03BC" unicode="&#x3bc;" horiz-adv-x="610" 
d="M522 114q0 -12 8 -18t18 -6t22.5 4t19.5 7l-13 -90q-11 -7 -35 -14t-56 -7q-100 0 -105 73q-75 -73 -165 -73q-23 0 -41 7q3 -14 3 -32q0 -14 -1 -22l-15 -104h-146l95 672h146q-47 -331 -47 -341q0 -33 18.5 -53.5t49.5 -20.5q39 0 71.5 29.5t38.5 71.5l44 314h146z" />
    <glyph glyph-name="pi" unicode="&#x3c0;" horiz-adv-x="679" 
d="M552 158q-10 -77 -10 -110q0 -24 2 -48h-138q-7 11 -7 45q0 42 9 103l37 263h-136q-18 -99 -56 -225.5t-71 -185.5h-139q37 76 74.5 199.5t51.5 211.5q-80 0 -117 -11l-4 78q47 33 190 33h457l-26 -100h-82z" />
    <glyph glyph-name="endash" unicode="&#x2013;" horiz-adv-x="500" 
d="M8 336h500l-17 -127h-499z" />
    <glyph glyph-name="emdash" unicode="&#x2014;" horiz-adv-x="911" 
d="M8 335h910l-17 -126h-909z" />
    <glyph glyph-name="quoteleft" unicode="&#x2018;" horiz-adv-x="277" 
d="M148 542h63l-21 -147h-146l17 123l66 168h73z" />
    <glyph glyph-name="quoteright" unicode="&#x2019;" horiz-adv-x="277" 
d="M127 539h-63l21 147h146l-17 -123l-66 -168h-73z" />
    <glyph glyph-name="quotesinglbase" unicode="&#x201a;" horiz-adv-x="277" 
d="M127 0h-63l21 147h146l-17 -123l-66 -168h-73z" />
    <glyph glyph-name="quotedblleft" unicode="&#x201c;" horiz-adv-x="472" 
d="M148 542h63l-21 -147h-146l17 123l66 168h73zM343 542h63l-21 -147h-146l17 123l66 168h73z" />
    <glyph glyph-name="quotedblright" unicode="&#x201d;" horiz-adv-x="472" 
d="M127 539h-63l21 147h146l-17 -123l-66 -168h-73zM322 539h-63l21 147h146l-17 -123l-66 -168h-73z" />
    <glyph glyph-name="quotedblbase" unicode="&#x201e;" horiz-adv-x="472" 
d="M127 0h-63l21 147h146l-17 -123l-66 -168h-73zM322 0h-63l21 147h146l-17 -123l-66 -168h-73z" />
    <glyph glyph-name="dagger" unicode="&#x2020;" horiz-adv-x="572" 
d="M285 -166h-118l101 577l-210 -19l17 118l204 -19v195h124l-46 -195l210 19l-17 -118l-204 19z" />
    <glyph glyph-name="daggerdbl" unicode="&#x2021;" horiz-adv-x="572" 
d="M495 1l-35 3q-123 11 -169 16v-195h-124q24 106 46 195q-76 -8 -209 -19l16 117l205 -18v156q14 55 25 91l18 64q-76 -8 -209 -19l16 118q73 -8 205 -19v195h123l-45 -195l38 3q124 11 170 16l-16 -118l-207 19v-155l-29 -112l-11 -44l208 18z" />
    <glyph glyph-name="bullet" unicode="&#x2022;" horiz-adv-x="544" 
d="M407.5 272q-25.5 -42 -68 -66.5t-92.5 -24.5q-60 0 -99.5 39.5t-39.5 98.5q0 49 25 92t67.5 68.5t92.5 25.5q60 0 100 -40t40 -100q0 -51 -25.5 -93z" />
    <glyph glyph-name="ellipsis" unicode="&#x2026;" horiz-adv-x="874" 
d="M230 147l-21 -147h-147l21 147h147zM520 147l-21 -147h-146l21 147h146zM810 147l-21 -147h-146l21 147h146z" />
    <glyph glyph-name="perthousand" unicode="&#x2030;" horiz-adv-x="1080" 
d="M70 0l516 686h80l-513 -686h-83zM271.5 371.5q-39.5 -35.5 -91.5 -35.5h-15q-47 0 -77 29.5t-30 73.5q0 15 16 124q7 52 45.5 87t94.5 35h15q47 0 76 -29.5t29 -73.5q0 -13 -15 -124q-8 -51 -47.5 -86.5zM246.5 516.5q7.5 49.5 7.5 56.5q0 23 -8.5 36t-32.5 13
q-21 0 -37 -14t-19 -35q-3 -18 -10.5 -68t-7.5 -56q0 -23 9.5 -36t33.5 -13q22 0 37 14t17 35q3 18 10.5 67.5zM614.5 34.5q-39.5 -35.5 -91.5 -35.5h-15q-47 0 -77 29.5t-30 73.5q0 15 16 124q7 52 45.5 87t94.5 35h15q47 0 76 -29.5t29 -73.5q0 -13 -15 -124
q-8 -51 -47.5 -86.5zM951.5 34.5q-39.5 -35.5 -91.5 -35.5h-15q-47 0 -77 29.5t-30 73.5q0 15 16 124q7 52 45.5 87t94.5 35h15q47 0 76 -29.5t29 -73.5q0 -13 -15 -124q-8 -51 -47.5 -86.5zM589.5 179.5q7.5 49.5 7.5 56.5q0 23 -8.5 36t-32.5 13q-21 0 -37 -14t-19 -35
q-3 -18 -10.5 -68t-7.5 -56q0 -23 9.5 -36t33.5 -13q22 0 37 14t17 35q3 18 10.5 67.5zM926.5 179.5q7.5 49.5 7.5 56.5q0 23 -8.5 36t-32.5 13q-21 0 -37 -14t-19 -35q-3 -18 -10.5 -68t-7.5 -56q0 -23 9.5 -36t33.5 -13q22 0 37 14t17 35q3 18 10.5 67.5z" />
    <glyph glyph-name="guilsinglleft" unicode="&#x2039;" horiz-adv-x="277" 
d="M47 337l145 174h62l-113 -174l64 -174h-62z" />
    <glyph glyph-name="guilsinglright" unicode="&#x203a;" horiz-adv-x="277" 
d="M136 337l-65 174h62l97 -174l-146 -174h-62z" />
    <glyph glyph-name="fraction" unicode="&#x2044;" horiz-adv-x="194" 
d="M-199 0l516 686h71l-513 -686h-74z" />
    <glyph glyph-name="Euro" unicode="&#x20ac;" horiz-adv-x="582" 
d="M140 449q30 82 84 136.5t119 80.5t133 26q55 0 111 -13l-18 -125q-45 13 -87 13q-57 0 -108 -30t-81 -88h167l-11 -78h-184q-3 -8 -5 -29q-4 -24 -4 -32h184l-11 -79h-164q17 -58 62 -85.5t104 -27.5q34 0 80 19l-18 -129q-60 -16 -98 -16q-112 0 -193 55.5t-93 183.5
h-95l11 79h84l9 61h-84l11 78h95z" />
    <glyph glyph-name="uni2113" unicode="&#x2113;" horiz-adv-x="508" 
d="M225 184q-2 -15 -2 -28q0 -69 71 -69q40 0 100 24l-12 -91q-27 -14 -66.5 -22.5t-76.5 -8.5q-77 0 -121 37t-44 100q0 15 4 46l8 58h-70l12 86h70l13 89l12 84q15 102 75.5 155.5t149.5 53.5q79 0 121.5 -42.5t42.5 -124.5q0 -68 -28 -135t-91 -114.5t-161 -51.5z
M347 351q39 31 55 74t16 85q0 80 -59 80q-35 0 -59 -26t-31 -75l-25 -173q64 4 103 35z" />
    <glyph glyph-name="trademark" unicode="&#x2122;" horiz-adv-x="904" 
d="M241 288h-93v320h-120v78h332v-78h-119v-320zM775 586l-2 -3q-8 -26 -53 -160q-16 -45 -46 -135h-101q-53 163 -97 293l-2 3q0 -198 1 -296h-85v398h149l89 -267l91 267h149v-398h-93v298z" />
    <glyph glyph-name="uni2126" unicode="&#x2126;" horiz-adv-x="724" 
d="M643 252q-33 -77 -111 -141q10 2 30 4l70 11h23l-17 -126h-284l9 67q63 17 90.5 68.5t41.5 153.5q17 120 17 150q0 68 -29.5 101.5t-89.5 33.5q-77 0 -116 -48t-52 -145q-11 -79 -16 -121.5t-5 -64.5q0 -53 17.5 -84.5t59.5 -43.5l-9 -67h-284l16 126h23l28 -5
q13 -2 30 -4.5t39 -5.5q-72 74 -72 182q0 106 38.5 197.5t115 147.5t186.5 56h36q72 0 128 -29.5t88 -86.5t32 -136q0 -113 -33 -190z" />
    <glyph glyph-name="estimated" unicode="&#x212e;" horiz-adv-x="743" 
d="M550.5 656q71.5 -40 110.5 -115t39 -178v-56h-456v-194q57 -45 143 -45q64 0 115 24t81 72l71 -48q-42 -61 -110.5 -93.5t-156.5 -32.5q-95 0 -167 40t-111 115.5t-39 178.5v38q0 103 39 178.5t110.5 115.5t165.5 40t165.5 -40zM244 382h281v194q-55 43 -140 43
q-86 0 -141 -45v-192z" />
    <glyph glyph-name="partialdiff" unicode="&#x2202;" horiz-adv-x="600" 
d="M360 696q61 0 109.5 -26t75.5 -72t27 -106q0 -17 -34 -262q-10 -69 -50.5 -124t-101 -85.5t-128.5 -30.5h-18q-63 0 -111.5 24.5t-76 69t-27.5 103.5q0 75 34.5 131t92.5 86t125 30q39 0 75.5 -16.5t58.5 -46.5l16 114q0 36 -26.5 64.5t-65.5 28.5h-120l16 118h129z
M393 251q0 39 -27 63.5t-71 24.5q-45 0 -80.5 -30t-41.5 -74q-5 -35 -5 -45q0 -39 26.5 -64t70.5 -25q46 0 81.5 30t41.5 74q5 35 5 46z" />
    <glyph glyph-name="uni2206" unicode="&#x2206;" horiz-adv-x="673" 
d="M337 686h121l143 -607l-11 -79h-578l11 79zM487 92l-107 469l-239 -469h346z" />
    <glyph glyph-name="product" unicode="&#x220f;" horiz-adv-x="818" 
d="M621 -100h-158l96 681h-225l-96 -681h-158l96 681h-116l19 138h775l-19 -138h-118z" />
    <glyph glyph-name="summation" unicode="&#x2211;" horiz-adv-x="643" 
d="M-21 -9l309 318l-210 308l14 102h568l-19 -135h-343v-4l175 -253l-274 -281v-4h388l-20 -142h-601z" />
    <glyph glyph-name="minus" unicode="&#x2212;" horiz-adv-x="625" 
d="M576 337l-17 -120h-512l17 120h512z" />
    <glyph glyph-name="uni2215" unicode="&#x2215;" horiz-adv-x="194" 
d="M-199 0l516 686h71l-513 -686h-74z" />
    <glyph glyph-name="uni2219" unicode="&#x2219;" horiz-adv-x="277" 
d="M221 362l-21 -148h-146l21 148h146z" />
    <glyph glyph-name="radical" unicode="&#x221a;" horiz-adv-x="683" 
d="M608 419l-237 -569h-125l-118 432l-86 -33q-9 47 -16 76l212 84l21 -88q50 -205 72 -320q98 252 278 692l52 128h114q-112 -268 -167 -402z" />
    <glyph glyph-name="infinity" unicode="&#x221e;" horiz-adv-x="812" 
d="M740 213.5q-26 -49.5 -71.5 -80.5t-102.5 -31q-47 0 -90 25t-82 89q-54 -56 -101.5 -85t-104.5 -29q-61 0 -102.5 41t-41.5 108q0 60 28.5 108t75.5 75.5t100 27.5q56 0 97 -28.5t75 -83.5l20 18q47 45 87 69.5t93 24.5q64 0 105 -40.5t41 -105.5q0 -53 -26 -102.5z
M284.5 209.5q37.5 26.5 75.5 66.5l-10 18q-24 43 -50 65.5t-66 22.5q-27 0 -51.5 -14.5t-40 -41t-15.5 -60.5q0 -35 23 -59t59 -24q38 0 75.5 26.5zM528 353q-38 -29 -76 -70q37 -58 64.5 -79t63.5 -21q31 0 54 18.5t35 46t12 52.5q0 37 -21 59.5t-57 22.5q-37 0 -75 -29z
" />
    <glyph glyph-name="integral" unicode="&#x222b;" horiz-adv-x="355" 
d="M168.5 729q54.5 21 135.5 21v-58q-30 0 -58 -11t-28 -38q4 -100 15.5 -392t11.5 -389q0 -70 -54 -91t-135 -21v59q30 0 57.5 11t27.5 39q-4 100 -15.5 391t-11.5 388q0 70 54.5 91z" />
    <glyph glyph-name="approxequal" unicode="&#x2248;" horiz-adv-x="714" 
d="M626 335.5q-27 -20.5 -66 -38t-81 -17.5q-28 0 -53.5 8.5t-58.5 24.5q-37 17 -62.5 25t-54.5 8q-42 0 -81 -17.5t-66 -38t-27 -22.5l15 105q0 2 27 22.5t66 38t81 17.5q28 0 53.5 -8.5t58.5 -24.5q38 -17 62.5 -25t53.5 -8q42 0 81 17.5t66 38t27 22.5l-14 -105
q0 -2 -27 -22.5zM595 120.5q-27 -20.5 -66 -38t-81 -17.5q-28 0 -53.5 8.5t-58.5 24.5q-38 17 -62.5 25t-53.5 8q-42 0 -81 -17.5t-66 -38t-27 -22.5l14 105q0 2 27 22.5t66 38t81 17.5q28 0 53.5 -8.5t58.5 -24.5q37 -17 62.5 -25t54.5 -8q42 0 81 17.5t66 38t27 22.5
l-15 -105q0 -2 -27 -22.5z" />
    <glyph glyph-name="notequal" unicode="&#x2260;" horiz-adv-x="600" 
d="M575 415l-15 -106h-167l-92 -110h244l-15 -106h-313l-78 -93h-96l77 93h-97l15 106h168l63 75l29 35h-245l15 106h315l80 96h93l-79 -96h98z" />
    <glyph glyph-name="lessequal" unicode="&#x2264;" horiz-adv-x="600" 
d="M591 520l-16 -115l-400 -83q94 -21 188.5 -41.5t188.5 -40.5l-16 -114l-490 135l17 123zM533 105l-15 -105h-510l15 105h510z" />
    <glyph glyph-name="greaterequal" unicode="&#x2265;" horiz-adv-x="600" 
d="M26 126l16 114l399 82l-376 83l16 115l490 -136l-17 -123zM8 0l15 105h510l-15 -105h-510z" />
    <glyph glyph-name="lozenge" unicode="&#x25ca;" horiz-adv-x="568" 
d="M55 343l216 343h121l120 -343l-217 -343h-121zM236 457l-72 -114l86 -246q50 82 154 246q-54 151 -85 245q-73 -115 -83 -131z" />
    <glyph glyph-name="caron.alt" horiz-adv-x="277" 
d="M127 539h-63l21 147h146l-17 -123l-66 -168h-73z" />
    </font>
</defs>
</svg>
