<?xml version="1.0" standalone="no"?>
<!DOCTYPE svg PUBLIC "-//W3C//DTD SVG 1.1//EN" "http://www.w3.org/Graphics/SVG/1.1/DTD/svg11.dtd" >
<svg xmlns="http://www.w3.org/2000/svg" xmlns:xlink="http://www.w3.org/1999/xlink" version="1.1">
<metadata>
Created by FontForge 20201107 at Thu Feb 18 22:55:40 2016
 By 
Copyright (c) 2011-2016 by Omnibus-Type (www.omnibus-type.com omnibus.type@gmail.com)
</metadata>
<defs>
<font id="Chivo-Light" horiz-adv-x="615" >
  <font-face 
    font-family="Chivo Light"
    font-weight="300"
    font-stretch="normal"
    units-per-em="1000"
    panose-1="2 11 3 3 3 2 2 2 8 4"
    ascent="800"
    descent="-200"
    x-height="511"
    cap-height="686"
    bbox="-169 -250 992 921"
    underline-thickness="50"
    underline-position="-100"
    unicode-range="U+0020-FB02"
  />
<missing-glyph horiz-adv-x="500" 
d="M500 700v-700h-500v700h500zM80 650l170 -255l170 255h-340zM220 350l-170 255v-510zM450 605l-170 -255l170 -255v510zM250 305l-170 -255h340z" />
    <glyph glyph-name="fi" unicode="fi" horiz-adv-x="601" 
d="M241 677q-19 5 -30 5q-26 0 -41.5 -13.5t-15.5 -53.5v-104h119v-46h-119v-465h-51v465h-56v46h56v106q0 56 28 83.5t74 27.5q18 0 36.5 -4.5t31.5 -12.5v-45q-13 6 -32 11zM451 720v-54h-59v54h59zM396 511h51v-511h-51v511z" />
    <glyph glyph-name="fl" unicode="fl" horiz-adv-x="607" 
d="M241 677q-19 5 -30 5q-26 0 -41.5 -13.5t-15.5 -53.5v-104h119v-46h-119v-465h-51v465h-56v46h56v106q0 56 28 83.5t74 27.5q18 0 36.5 -4.5t31.5 -12.5v-45q-13 6 -32 11zM398 720h51v-720h-51v720z" />
    <glyph glyph-name=".notdef" horiz-adv-x="500" 
d="M500 700v-700h-500v700h500zM80 650l170 -255l170 255h-340zM220 350l-170 255v-510zM450 605l-170 -255l170 -255v510zM250 305l-170 -255h340z" />
    <glyph glyph-name=".null" horiz-adv-x="0" 
 />
    <glyph glyph-name="nonmarkingreturn" horiz-adv-x="333" 
 />
    <glyph glyph-name="space" unicode=" " horiz-adv-x="244" 
 />
    <glyph glyph-name="exclam" unicode="!" horiz-adv-x="269" 
d="M143 686l-12 -545h-41l-11 545h64zM143 69v-69h-65v69h65z" />
    <glyph glyph-name="quotedbl" unicode="&#x22;" horiz-adv-x="364" 
d="M64 686h52v-147l-11 -125h-30l-11 125v147zM197 686h52v-147l-11 -125h-30l-11 125v147z" />
    <glyph glyph-name="numbersign" unicode="#" horiz-adv-x="643" 
d="M440 246h126v-58h-139l-42 -188h-58l42 188h-166l-42 -188h-58l42 188h-117v58h130l39 174h-130v58h143l49 218h59l-50 -218h166l49 218h59l-50 -218h113v-58h-126zM382 246l39 174h-166l-39 -174h166z" />
    <glyph glyph-name="dollar" unicode="$" horiz-adv-x="546" 
d="M92.5 66.5q-61.5 43.5 -61.5 135.5l1 16h51l-1 -25q0 -124 192 -124q90 0 141.5 29t51.5 102q0 43 -26 69t-64 39.5t-103 28.5q-74 18 -119 34.5t-76 51.5t-31 94q0 74 59 113t151 42l-10 90h50l-10 -90q95 -2 153.5 -43t58.5 -123v-12h-50v21q0 55 -48.5 82.5
t-126.5 27.5q-80 0 -127 -26t-47 -84q0 -38 24.5 -61.5t61 -36.5t99.5 -27q76 -18 122.5 -35t79 -53.5t32.5 -98.5q0 -94 -64 -138t-168 -46l10 -85h-50l9 85q-103 4 -164.5 47.5z" />
    <glyph glyph-name="percent" unicode="%" horiz-adv-x="699" 
d="M237.5 370.5q-32.5 -34.5 -87.5 -34.5t-87.5 34.5t-32.5 85.5v110q0 51 32.5 85.5t87.5 34.5t87.5 -34.5t32.5 -85.5v-110q0 -51 -32.5 -85.5zM108 0l417 686h59l-416 -686h-60zM201.5 620.5q-18.5 19.5 -51.5 19.5q-32 0 -51 -20t-19 -50v-118q0 -30 19 -50t51 -20
q33 0 51.5 19.5t18.5 50.5v118q0 31 -18.5 50.5zM627.5 33.5q-32.5 -34.5 -87.5 -34.5t-87.5 34.5t-32.5 85.5v110q0 51 32.5 85.5t87.5 34.5t87.5 -34.5t32.5 -85.5v-110q0 -51 -32.5 -85.5zM591.5 283.5q-18.5 19.5 -51.5 19.5q-32 0 -51 -20t-19 -50v-118q0 -30 19 -50
t51 -20q33 0 51.5 19.5t18.5 50.5v118q0 31 -18.5 50.5z" />
    <glyph glyph-name="ampersand" unicode="&#x26;" horiz-adv-x="662" 
d="M288 648q-71 0 -116.5 -35t-45.5 -102q0 -66 48 -101t119 -35h131l18 163h33v-163h119v-46h-119v-329h-187q-63 0 -115.5 23t-83.5 66.5t-31 102.5q0 124 128 161v2q-56 28 -85 62t-29 94q0 58 28.5 100t78 63.5t109.5 21.5q34 0 68 -8v-50q-30 10 -68 10zM160.5 295.5
q-49.5 -33.5 -49.5 -104.5q0 -68 49.5 -106.5t127.5 -38.5h136v283h-136q-78 0 -127.5 -33.5z" />
    <glyph glyph-name="quotesingle" unicode="'" horiz-adv-x="210" 
d="M64 686h52v-147l-11 -125h-30l-11 125v147z" />
    <glyph glyph-name="parenleft" unicode="(" horiz-adv-x="289" 
d="M90.5 490q41.5 109 117.5 196h29q-61 -93 -98.5 -201.5t-37.5 -219.5q0 -112 37.5 -220.5t98.5 -201.5h-29q-77 87 -118 196.5t-41 225.5t41.5 225z" />
    <glyph glyph-name="parenright" unicode=")" horiz-adv-x="288" 
d="M176 39.5q-41 -109.5 -118 -196.5h-29q61 93 98.5 201.5t37.5 220.5q0 111 -37.5 219.5t-98.5 201.5h29q76 -87 117.5 -196t41.5 -225t-41 -225.5z" />
    <glyph glyph-name="asterisk" unicode="*" horiz-adv-x="468" 
d="M364 347l-49 -36l-92 151l-90 -147l-50 35l116 132l-170 42l20 58l161 -70l-13 174h62l-17 -176l163 68l18 -59l-172 -39z" />
    <glyph glyph-name="plus" unicode="+" 
d="M563 284v-58h-227v-226h-58v226h-227v58h227v227h58v-227h227z" />
    <glyph glyph-name="comma" unicode="," horiz-adv-x="238" 
d="M82 -50.5q8 34.5 11 50.5h-24v69h65v-58l-30 -112h-34q4 16 12 50.5z" />
    <glyph glyph-name="hyphen" unicode="-" horiz-adv-x="391" 
d="M322 299v-62h-253v62h253z" />
    <glyph glyph-name="period" unicode="." horiz-adv-x="239" 
d="M134 69v-69h-65v69h65z" />
    <glyph glyph-name="slash" unicode="/" horiz-adv-x="600" 
d="M15 -171l490 857h59l-489 -857h-60z" />
    <glyph glyph-name="zero" unicode="0" 
d="M484.5 95q-28.5 -50 -79 -77.5t-113.5 -27.5t-113.5 27.5t-79 77.5t-28.5 116v264q0 66 28.5 116t79 77.5t113.5 27.5t113.5 -27.5t79 -77.5t28.5 -116v-264q0 -66 -28.5 -116zM437.5 566.5q-21.5 38.5 -60 60t-85.5 21.5t-85.5 -21.5t-60 -60t-21.5 -85.5v-276
q0 -47 21.5 -85.5t60 -60t85.5 -21.5t85.5 21.5t60 60t21.5 85.5v276q0 47 -21.5 85.5z" />
    <glyph glyph-name="one" unicode="1" 
d="M97 48h195v571h-195v34q73 8 119.5 15.5t106.5 27.5h23v-648h195v-48h-444v48z" />
    <glyph glyph-name="two" unicode="2" 
d="M94.5 123q24.5 38 78.5 73l202 131q39 25 65 63.5t26 90.5q0 74 -44 120.5t-120 46.5q-47 0 -86 -22.5t-61.5 -61.5t-22.5 -86q0 -16 1 -24h-54l-1 18q0 66 29.5 117t80.5 79t114 28q65 0 114.5 -28t76.5 -76t27 -108q0 -72 -33 -120t-87 -83l-212 -137q-39 -25 -49 -52
t-10 -44h395v-48h-454v23q0 62 24.5 100z" />
    <glyph glyph-name="three" unicode="3" 
d="M159.5 75q48.5 -39 127.5 -39q78 0 127.5 38.5t49.5 106.5q0 71 -50 108.5t-127 37.5h-77v48h72q71 0 119 35t48 101q0 67 -45.5 102t-116.5 35t-116.5 -36.5t-45.5 -100.5v-14h-53v14q0 57 28.5 99t77.5 64t109 22t109.5 -21.5t78 -63.5t28.5 -100q0 -60 -28.5 -94
t-84.5 -62v-4q58 -17 92.5 -59.5t34.5 -109.5q0 -59 -31 -102.5t-83.5 -66.5t-115.5 -23q-66 0 -118 23.5t-81.5 67.5t-29.5 101v17h53v-18q0 -67 48.5 -106z" />
    <glyph glyph-name="four" unicode="4" 
d="M433 573h19v-338h82v-48h-82v-187h-56v187h-346v48q21 25 67 106.5t93.5 179.5t75.5 175h56q-27 -84 -71 -179t-89 -172t-75 -110h289v257q24 49 37 81z" />
    <glyph glyph-name="five" unicode="5" 
d="M145.5 123.5q20.5 -39.5 58.5 -62.5t88 -23t88 24t58.5 64.5t20.5 88.5q0 50 -22.5 90.5t-60.5 63.5t-84 23q-47 0 -88.5 -24.5t-63.5 -64.5l-48 7l28 376h363v-54h-313l-19 -250q31 29 69.5 44t78.5 15q62 0 111 -28.5t76 -80t27 -117.5q0 -61 -27 -112.5t-77.5 -82
t-116.5 -30.5q-67 0 -117 29.5t-77 80t-27 111.5h54q0 -48 20.5 -87.5z" />
    <glyph glyph-name="six" unicode="6" 
d="M208 405.5q47 23.5 100 23.5q59 0 108 -28t77 -78t28 -112q0 -66 -28.5 -116t-79 -77.5t-113.5 -27.5t-113.5 27.5t-79 77.5t-28.5 116v264q0 66 27.5 116t77 77.5t112.5 27.5t111.5 -27.5t75 -77.5t26.5 -116h-52v6q0 73 -45 120t-116 47q-47 0 -84 -21.5t-58 -59.5
t-21 -86v-140q28 41 75 64.5zM154.5 119.5q21.5 -38.5 60 -60t85.5 -21.5t85.5 21.5t60 60t21.5 85.5v9q0 47 -21.5 85.5t-60 60t-85.5 21.5t-85.5 -21.5t-60 -60t-21.5 -85.5v-9q0 -47 21.5 -85.5z" />
    <glyph glyph-name="seven" unicode="7" 
d="M348 368.5q-84 -162.5 -84 -322.5q0 -20 2 -46h-62q0 178 75 339.5t183 292.5h-389v54h471v-30q-112 -125 -196 -287.5z" />
    <glyph glyph-name="eight" unicode="8" 
d="M491.5 289q31.5 -39 31.5 -106q0 -89 -59 -141t-169 -52q-104 0 -166 50t-62 143q0 66 32.5 108t89.5 61v4q-48 24 -73.5 59.5t-25.5 96.5q0 85 56 134.5t149 49.5t149 -49.5t56 -134.5q0 -61 -25.5 -96.5t-74.5 -59.5v-4q60 -24 91.5 -63zM186.5 412.5
q42.5 -36.5 107.5 -36.5t108 36t43 100q0 65 -40.5 100.5t-110.5 35.5t-110 -36t-40 -100q0 -63 42.5 -99.5zM422.5 289q-46.5 39 -127.5 39t-127.5 -39t-46.5 -106q0 -68 43.5 -106.5t130.5 -38.5q86 0 130 38t44 107q0 67 -46.5 106z" />
    <glyph glyph-name="nine" unicode="9" 
d="M376 281q-47 -24 -100 -24q-59 0 -108 28t-77 78t-28 112q0 66 28.5 116t79 77.5t113.5 27.5t113.5 -27.5t79 -77.5t28.5 -116v-264q0 -66 -28 -116t-78 -77.5t-113 -27.5t-112 27.5t-76 77.5t-27 116h52v-6q0 -48 21 -86t58 -59.5t84 -21.5t85 21.5t59 60t21 85.5v141
q-28 -41 -75 -65zM429.5 566.5q-21.5 38.5 -60 60t-85.5 21.5t-85.5 -21.5t-60 -60t-21.5 -85.5v-9q0 -47 21.5 -85.5t60 -60t85.5 -21.5t85.5 21.5t60 60t21.5 85.5v9q0 47 -21.5 85.5z" />
    <glyph glyph-name="colon" unicode=":" horiz-adv-x="239" 
d="M134 511v-69h-65v69h65zM134 69v-69h-65v69h65z" />
    <glyph glyph-name="semicolon" unicode=";" horiz-adv-x="239" 
d="M134 511v-69h-65v69h65zM82 -50.5q8 34.5 11 50.5h-24v69h65v-58l-30 -112h-34q4 16 12 50.5z" />
    <glyph glyph-name="less" unicode="&#x3c;" 
d="M553 495v-62l-462 -179l462 -179v-62l-509 197v88z" />
    <glyph glyph-name="equal" unicode="=" 
d="M55 386h500v-58h-500v58zM55 178h500v-58h-500v58z" />
    <glyph glyph-name="greater" unicode="&#x3e;" 
d="M62 13v62l462 179l-462 179v62l509 -197v-88z" />
    <glyph glyph-name="question" unicode="?" horiz-adv-x="502" 
d="M212 166v78q0 39 18.5 64.5t54.5 55.5q42 35 63.5 66.5t21.5 82.5q0 48 -30 91.5t-108 43.5q-90 0 -121 -51.5t-31 -102.5q0 -9 1 -17.5t2 -11.5h-54q-1 2 -2 10t-1 23q0 30 14.5 75.5t60 84.5t130.5 39t127.5 -38t54 -78t11.5 -66q0 -46 -13 -78t-31 -52.5t-48 -45.5
q-35 -31 -50.5 -52t-15.5 -56v-65h-54zM271 69v-69h-65v69h65z" />
    <glyph glyph-name="at" unicode="@" horiz-adv-x="885" 
d="M699.5 566.5q-90.5 79.5 -247.5 79.5q-171 0 -266 -97t-95 -288q0 -182 80.5 -272.5t246.5 -90.5q36 0 87.5 9.5t77.5 22.5v-56q-30 -11 -80 -19t-85 -8q-182 0 -281 102t-99 313q0 152 55 249.5t148.5 141.5t211.5 44q178 0 284 -92.5t106 -284.5q0 -104 -27 -171
t-67 -96.5t-80 -29.5q-52 0 -71 23t-19 69q-30 -48 -75 -70.5t-106 -22.5q-66 0 -110.5 30.5t-44.5 103.5q0 67 41 100t110.5 43t184.5 10v61q0 61 -29.5 84.5t-99.5 23.5q-64 0 -102 -23.5t-38 -74.5v-15h-48q-2 16 -2 24q0 62 53.5 97t136.5 35q90 0 134 -34.5t44 -107.5
v-274q0 -21 9 -30t30 -9q53 0 88 61.5t35 193.5q0 166 -90.5 245.5zM419 260.5q-58 -6.5 -91.5 -30.5t-33.5 -74q0 -47 28 -69t86 -22q44 0 83 18.5t63.5 56.5t24.5 94v33q-102 0 -160 -6.5z" />
    <glyph glyph-name="A" unicode="A" horiz-adv-x="652" 
d="M130 170l-70 -170h-56l284 686h50l284 -686h-59l-71 170h-362zM472 219l-159 393h-4l-159 -393h322z" />
    <glyph glyph-name="B" unicode="B" horiz-adv-x="651" 
d="M366 686q49 0 90 -22.5t65.5 -61t24.5 -84.5q0 -69 -36 -108t-85 -51v-6q26 -4 57 -19.5t55.5 -52.5t24.5 -98q0 -50 -25.5 -92t-69 -66.5t-95.5 -24.5h-280v686h274zM452 412q39 38 39 94t-39 94t-96 38h-210v-264h210q57 0 96 38zM437.5 66q32.5 18 51.5 50t19 70
t-19 70.5t-52 51t-71 18.5h-220v-278h220q39 0 71.5 18z" />
    <glyph glyph-name="C" unicode="C" horiz-adv-x="663" 
d="M503 50q-71 -60 -183 -60q-80 0 -136.5 29t-89 104t-32.5 207v26q0 132 32.5 207t89 104t136.5 29q113 0 183.5 -59t70.5 -203h-53q0 119 -55 166.5t-146 47.5q-98 0 -151 -60.5t-53 -219.5v-50q0 -159 53 -219.5t151 -60.5q201 0 201 213h53q0 -141 -71 -201z" />
    <glyph glyph-name="D" unicode="D" horiz-adv-x="675" 
d="M92 686h220q123 0 194.5 -74.5t71.5 -255.5v-25q0 -180 -72 -255.5t-194 -75.5h-220v686zM467 109q57 61 57 213v43q0 273 -212 273h-166v-590h166q98 0 155 61z" />
    <glyph glyph-name="E" unicode="E" horiz-adv-x="593" 
d="M92 686h424l-10 -48h-360v-264h319v-48h-319v-278h369l11 -48h-434v686z" />
    <glyph glyph-name="F" unicode="F" horiz-adv-x="550" 
d="M146 638v-264h293v-48h-293v-326h-54v686h406l-9 -48h-343z" />
    <glyph glyph-name="G" unicode="G" horiz-adv-x="677" 
d="M292 303v47h282v-231q0 -44 2.5 -77t3.5 -42h-37q-2 6 -6.5 29.5t-9.5 62.5q-30 -53 -84.5 -77.5t-122.5 -24.5q-80 0 -136.5 29t-89 104t-32.5 207v26q0 132 32.5 207t89 104t136.5 29q112 0 183 -56t71 -191h-53q0 110 -56 154.5t-145 44.5q-98 0 -151 -60.5
t-53 -219.5v-50q0 -159 53 -219.5t151 -60.5q204 0 204 213v52h-232z" />
    <glyph glyph-name="H" unicode="H" horiz-adv-x="693" 
d="M517 326h-371v-326h-54v686h54v-312h371v312h54v-686h-54v326z" />
    <glyph glyph-name="I" unicode="I" horiz-adv-x="364" 
d="M265 686v-49h-79v-588h79v-49h-212v49h79v588h-79v49h212z" />
    <glyph glyph-name="J" unicode="J" horiz-adv-x="526" 
d="M79 185v-13q0 -68 38.5 -101t100.5 -33t100.5 33.5t38.5 100.5v514h54v-520q0 -84 -54.5 -130t-138.5 -46t-136.5 46t-52.5 130v19h50z" />
    <glyph glyph-name="K" unicode="K" horiz-adv-x="623" 
d="M146 686v-407l363 407h64l-267 -299l275 -387h-68l-244 346l-123 -138v-208h-54v686h54z" />
    <glyph glyph-name="L" unicode="L" horiz-adv-x="536" 
d="M92 686h54v-638h340l12 -48h-406v686z" />
    <glyph glyph-name="M" unicode="M" horiz-adv-x="938" 
d="M749 625h-5l-275 -625h-51l-273 625h-5v-625h-48v686h86l268 -617h1l271 617h85v-686h-54v625z" />
    <glyph glyph-name="N" unicode="N" horiz-adv-x="694" 
d="M143 583h-3v-583h-48v686h46l382 -583h3v583h48v-686h-48z" />
    <glyph glyph-name="O" unicode="O" horiz-adv-x="690" 
d="M131.5 64.5q-70.5 74.5 -70.5 265.5v26q0 191 70.5 265.5t195.5 74.5t195.5 -74.5t70.5 -265.5v-26q0 -191 -70.5 -265.5t-195.5 -74.5t-195.5 74.5zM482.5 99q56.5 61 56.5 219v50q0 158 -56.5 219t-155.5 61t-155.5 -61t-56.5 -219v-50q0 -158 56.5 -219t155.5 -61
t155.5 61z" />
    <glyph glyph-name="P" unicode="P" horiz-adv-x="624" 
d="M92 686h281q51 0 94 -25t68 -68t25 -94t-25 -94t-68 -68t-94 -25h-227v-312h-54v686zM437 377.5q33 18.5 52 51t19 70.5t-19 70t-52 50.5t-71 18.5h-220v-279h220q38 0 71 18.5z" />
    <glyph glyph-name="Q" unicode="Q" horiz-adv-x="690" 
d="M530 74.5q-63 -75.5 -175 -83.5q6 -34 31.5 -57.5t76.5 -23.5q21 0 46.5 6.5t44 13t23.5 9.5v-49q-4 -2 -19.5 -8.5t-40.5 -12.5t-53 -6q-80 0 -115.5 37t-43.5 91q-115 5 -179.5 80.5t-64.5 258.5v26q0 191 70.5 265.5t195.5 74.5t195.5 -74.5t70.5 -265.5v-26
q0 -180 -63 -255.5zM482.5 99q56.5 61 56.5 219v50q0 158 -56.5 219t-155.5 61t-155.5 -61t-56.5 -219v-50q0 -158 56.5 -219t155.5 -61t155.5 61z" />
    <glyph glyph-name="R" unicode="R" horiz-adv-x="670" 
d="M590 -1.5q-7 -1.5 -16 -1.5q-31 0 -54.5 27.5t-23.5 102.5q0 120 -42 159.5t-87 39.5h-221v-326h-54v686h279q49 0 92.5 -21.5t70.5 -60t27 -88.5q0 -36 -16 -71t-44.5 -60t-62.5 -31v-5q0 5 30.5 -12t55 -60.5t24.5 -123.5q0 -57 7 -83.5t14.5 -33t29.5 -16.5v-19
q-2 -1 -9 -2.5zM441 392q31 18 49 48.5t18 66.5t-18 66t-48.5 47.5t-67.5 17.5h-228v-264h228q36 0 67 18z" />
    <glyph glyph-name="S" unicode="S" horiz-adv-x="627" 
d="M473 525q0 60 -49.5 91.5t-126.5 31.5q-79 0 -127 -29.5t-48 -93.5q0 -42 25 -67.5t62 -40t100 -30.5q76 -20 122.5 -38.5t79 -57t32.5 -103.5q0 -103 -67.5 -150.5t-175.5 -47.5q-112 0 -180 46.5t-68 150.5l1 18h51l-1 -27q0 -73 53 -106.5t140 -33.5q194 0 194 147
q0 47 -26.5 76t-65 44t-105.5 33q-74 20 -118 38t-75 54.5t-31 97.5q0 84 64.5 126t162.5 42q101 0 164 -44t63 -136v-13h-50v22z" />
    <glyph glyph-name="T" unicode="T" horiz-adv-x="578" 
d="M309 0h-52v638h-232v48h516v-48h-232v-638z" />
    <glyph glyph-name="U" unicode="U" horiz-adv-x="680" 
d="M563 220q0 -69 -29.5 -121t-84 -80.5t-125.5 -28.5t-125 28.5t-83.5 80.5t-29.5 121v466h54v-464q0 -85 48.5 -134.5t135.5 -49.5t136 50.5t49 133.5v464h54v-466z" />
    <glyph glyph-name="V" unicode="V" horiz-adv-x="603" 
d="M572 686l-259 -686h-48l-260 686h59l225 -600h5l225 600h53z" />
    <glyph glyph-name="W" unicode="W" horiz-adv-x="916" 
d="M848 686l-200 -686h-46l-169 581h-4l-169 -581h-46l-200 686h58l167 -579h4l167 579h50l167 -579h4l167 579h50z" />
    <glyph glyph-name="X" unicode="X" horiz-adv-x="631" 
d="M581 0h-65l-222 315h-2l-224 -315h-59l255 359l-232 327h65l199 -284h2l202 284h59l-233 -327z" />
    <glyph glyph-name="Y" unicode="Y" horiz-adv-x="572" 
d="M295 0h-54v266l-246 420h63l211 -365h3l214 365h55l-246 -420v-266z" />
    <glyph glyph-name="Z" unicode="Z" horiz-adv-x="596" 
d="M32 25l413 613h-389v48h471v-24l-414 -614h422v-48h-503v25z" />
    <glyph glyph-name="bracketleft" unicode="[" horiz-adv-x="293" 
d="M85 686h141v-38h-88v-771h88v-38h-141v847z" />
    <glyph glyph-name="backslash" unicode="\" horiz-adv-x="600" 
d="M15 686h60l392 -686h-60z" />
    <glyph glyph-name="bracketright" unicode="]" horiz-adv-x="293" 
d="M39 -123h88v771h-88v38h141v-847h-141v38z" />
    <glyph glyph-name="asciicircum" unicode="^" horiz-adv-x="596" 
d="M531 0h-62l-179 464l-179 -464h-62l197 511h88z" />
    <glyph glyph-name="underscore" unicode="_" horiz-adv-x="694" 
d="M97 -64h500v-58h-500v58z" />
    <glyph glyph-name="grave" unicode="`" horiz-adv-x="333" 
d="M68 717v3h65l96 -145h-50z" />
    <glyph glyph-name="a" unicode="a" horiz-adv-x="585" 
d="M474 36q23 0 50 16v-43q-28 -19 -64 -19t-50 26.5t-14 72.5q-31 -51 -77.5 -75t-109.5 -24q-71 0 -116 32.5t-45 110.5q0 71 42.5 106.5t115 46t190.5 10.5v64q0 64 -30.5 89.5t-102.5 25.5q-66 0 -106 -25.5t-40 -78.5v-16h-49q-2 16 -2 26q0 65 55.5 102.5t141.5 37.5
q93 0 138.5 -37t45.5 -114v-301q0 -33 27 -33zM229.5 243q-60.5 -7 -95.5 -32.5t-35 -78.5q0 -50 28.5 -73t91.5 -23q45 0 85.5 20t66 60.5t25.5 99.5v34q-106 0 -166.5 -7z" />
    <glyph glyph-name="b" unicode="b" horiz-adv-x="583" 
d="M201.5 499.5q42.5 21.5 95.5 21.5q57 0 103 -29t73 -85.5t27 -135.5v-11q0 -135 -56.5 -202.5t-146.5 -67.5q-118 0 -174 95l-19 -85h-21v720h51v-280q25 38 67.5 59.5zM176.5 87.5q43.5 -51.5 115.5 -51.5q71 0 114 52.5t43 169.5v11q0 102 -44 154t-113 52
q-70 0 -114.5 -51.5t-44.5 -154.5v-12q0 -118 43.5 -169.5z" />
    <glyph glyph-name="c" unicode="c" horiz-adv-x="544" 
d="M438 85.5q-26 -46.5 -71 -71t-102 -24.5q-63 0 -111.5 30.5t-75.5 88.5t-27 139v15q0 81 26.5 139t75 88.5t111.5 30.5q57 0 102.5 -24.5t71.5 -71t26 -111.5h-50q0 78 -42.5 119.5t-107.5 41.5q-72 0 -117 -53t-45 -153v-27q0 -100 45.5 -153t117.5 -53q65 0 107 41
t42 120h50q0 -65 -26 -111.5z" />
    <glyph glyph-name="d" unicode="d" horiz-adv-x="583" 
d="M255 -10q-90 0 -146.5 67.5t-56.5 202.5v11q0 79 27 135.5t73 85.5t103 29q53 0 95.5 -21.5t67.5 -59.5v280h51v-720h-34l-11 77q-56 -87 -169 -87zM374.5 423.5q-44.5 51.5 -114.5 51.5q-69 0 -113 -52t-44 -154v-11q0 -117 43 -169.5t114 -52.5q72 0 115.5 51.5
t43.5 169.5v12q0 103 -44.5 154.5z" />
    <glyph glyph-name="e" unicode="e" horiz-adv-x="556" 
d="M437.5 82q-26.5 -45 -71.5 -68.5t-101 -23.5q-63 0 -111.5 30.5t-75.5 88.5t-27 139v15q0 81 26.5 139t75 88.5t111.5 30.5q57 0 102.5 -24.5t71.5 -71t26 -111.5v-64h-362v-8q0 -100 45.5 -153t117.5 -53q64 0 106.5 39t42.5 114h50q0 -62 -26.5 -107zM153 429
q-44 -46 -50 -133h311v18q0 78 -42.5 119.5t-107.5 41.5q-67 0 -111 -46z" />
    <glyph glyph-name="f" unicode="f" horiz-adv-x="338" 
d="M241 677q-19 5 -30 5q-26 0 -41.5 -13.5t-15.5 -53.5v-104h119v-46h-119v-465h-51v465h-56v46h56v106q0 56 28 83.5t74 27.5q18 0 36.5 -4.5t31.5 -12.5v-45q-13 6 -32 11z" />
    <glyph glyph-name="g" unicode="g" horiz-adv-x="568" 
d="M489 33q33 -34 33 -85q0 -38 -18.5 -69t-51 -49t-73.5 -18h-217q-35 0 -64 18t-45.5 47t-16.5 62q0 37 20 69.5t54 46.5q-45 27 -45 80q0 35 21.5 60.5t59.5 40.5q-32 23 -50 55t-18 69q0 71 49 116t146 45q65 0 111 -22q37 10 61 37t29 67h48q0 -44 -27.5 -82t-71.5 -44
l-1 -4q22 -19 34 -48.5t12 -64.5q0 -71 -49 -115.5t-146 -44.5h-82q-32 0 -53.5 -18t-21.5 -49t21 -48.5t54 -17.5h213q52 0 85 -34zM378.5 442q-38.5 33 -105.5 33t-105.5 -33t-38.5 -82t38.5 -82t105.5 -33t105.5 33t38.5 82t-38.5 82zM444.5 -116.5q26.5 25.5 26.5 61.5
q0 29 -21 51t-50 22h-234q-33 0 -56.5 -23.5t-23.5 -56.5t23.5 -56.5t56.5 -23.5h216q36 0 62.5 25.5z" />
    <glyph glyph-name="h" unicode="h" horiz-adv-x="593" 
d="M435 314q0 81 -37.5 121t-106.5 40q-44 0 -80 -21t-56.5 -58t-20.5 -82v-314h-51v720h51v-281q25 39 70 60.5t92 21.5q84 0 137 -48.5t53 -143.5v-329h-51v314z" />
    <glyph glyph-name="i" unicode="i" horiz-adv-x="260" 
d="M140 720v-54h-59v54h59zM85 511h51v-511h-51v511z" />
    <glyph glyph-name="j" unicode="j" horiz-adv-x="260" 
d="M140 720v-54h-59v54h59zM136 511v-586q0 -56 -27.5 -83.5t-74.5 -27.5q-18 0 -36.5 4.5t-31.5 12.5v45q13 -6 32 -11t30 -5q26 0 41.5 13.5t15.5 53.5v584h51z" />
    <glyph glyph-name="k" unicode="k" horiz-adv-x="535" 
d="M134 127v-127h-51v720h51v-534l290 325h63l-215 -241l232 -270h-66l-200 232z" />
    <glyph glyph-name="l" unicode="l" horiz-adv-x="268" 
d="M87 720h51v-720h-51v720z" />
    <glyph glyph-name="m" unicode="m" horiz-adv-x="867" 
d="M710 472.5q48 -48.5 48 -143.5v-329h-51v314q0 161 -125 161q-60 0 -98 -46t-38 -115v-314h-51v314q0 161 -125 161q-60 0 -98 -46t-38 -115v-314h-51v511h34l12 -76q22 40 61 63t84 23q51 0 91.5 -22t62.5 -65q22 37 63.5 62t94.5 25q76 0 124 -48.5z" />
    <glyph glyph-name="n" unicode="n" horiz-adv-x="593" 
d="M435 314q0 81 -37.5 121t-106.5 40q-44 0 -80 -21t-56.5 -58t-20.5 -82v-314h-51v511h34l11 -76q26 40 71.5 63t96.5 23q84 0 136.5 -48.5t52.5 -143.5v-329h-50v314z" />
    <glyph glyph-name="o" unicode="o" horiz-adv-x="574" 
d="M156 20.5q-49 30.5 -76.5 88.5t-27.5 139v15q0 81 27.5 139t76.5 88.5t112 30.5t112 -30.5t76.5 -88.5t27.5 -139v-15q0 -81 -27.5 -139t-76.5 -88.5t-112 -30.5t-112 30.5zM387 89q46 53 46 153v27q0 100 -46 153t-119 53t-119 -53t-46 -153v-27q0 -100 46 -153t119 -53
t119 53z" />
    <glyph glyph-name="p" unicode="p" horiz-adv-x="583" 
d="M297 521q90 0 146.5 -67.5t56.5 -202.5v-11q0 -79 -27 -135.5t-73 -85.5t-103 -29q-53 0 -95.5 21.5t-67.5 59.5v-252h-51v692h34l11 -77q56 87 169 87zM177.5 87.5q44.5 -51.5 114.5 -51.5q69 0 113 52t44 154v11q0 117 -43 169.5t-114 52.5q-72 0 -115.5 -51.5
t-43.5 -169.5v-12q0 -103 44.5 -154.5z" />
    <glyph glyph-name="q" unicode="q" horiz-adv-x="583" 
d="M350.5 11.5q-42.5 -21.5 -95.5 -21.5q-57 0 -103 29t-73 85.5t-27 135.5v11q0 135 56.5 202.5t146.5 67.5q118 0 174 -95l19 85h21v-691h-51v251q-25 -38 -67.5 -59.5zM375.5 423.5q-43.5 51.5 -115.5 51.5q-71 0 -114 -52.5t-43 -169.5v-11q0 -102 44 -154t113 -52
q70 0 114.5 51.5t44.5 154.5v12q0 118 -43.5 169.5z" />
    <glyph glyph-name="r" unicode="r" horiz-adv-x="490" 
d="M388 344q0 50 -29 90.5t-96 40.5q-46 0 -75 -24.5t-41.5 -59.5t-12.5 -67v-324h-51v511h34l11 -76q0 4 15.5 26t48 41t81.5 19q79 0 121.5 -48.5t42.5 -120.5q0 -10 -1 -16t-1 -8h-47v16z" />
    <glyph glyph-name="s" unicode="s" horiz-adv-x="534" 
d="M95 143q0 -51 44.5 -79t121.5 -28q69 0 107 27.5t38 72.5q0 35 -21.5 55t-53 30.5t-84.5 20.5q-61 12 -98 24.5t-63 39.5t-26 75q0 62 50 101t148 39q64 0 106 -21t61.5 -52.5t19.5 -64.5l-1 -14h-50v13q0 32 -28.5 62.5t-116.5 30.5q-85 0 -111.5 -29t-26.5 -63
q0 -29 20 -47t50 -27.5t83 -20.5q61 -13 100 -26t66 -41t27 -75q0 -82 -56.5 -119t-152.5 -37q-73 0 -118.5 23t-65 56t-19.5 63q0 12 0.5 18t0.5 7h50q-1 -5 -1 -14z" />
    <glyph glyph-name="t" unicode="t" horiz-adv-x="346" 
d="M237.5 -5.5q-18.5 -4.5 -36.5 -4.5q-46 0 -74 28t-28 83v364h-56v46h56l18 163h33v-163h119v-46h-119v-362q0 -40 15.5 -53.5t41.5 -13.5q11 0 30 5t32 11v-45q-13 -8 -31.5 -12.5z" />
    <glyph glyph-name="u" unicode="u" horiz-adv-x="618" 
d="M360 13q-44 -23 -95 -23q-84 0 -135.5 48t-51.5 144v329h51v-314q0 -81 37.5 -121t106.5 -40q44 0 80 21t56.5 58t20.5 82v314h51v-442q0 -33 27 -33q23 0 50 16v-43q-28 -19 -64 -19q-34 0 -49 25.5t-15 60.5q-26 -40 -70 -63z" />
    <glyph glyph-name="v" unicode="v" horiz-adv-x="512" 
d="M218 0l-206 511h55l175 -437h2l176 437h50l-207 -511h-45z" />
    <glyph glyph-name="w" unicode="w" horiz-adv-x="811" 
d="M197 0l-177 511h53l145 -418h3l145 418h59l145 -418h3l145 418h49l-178 -511h-40l-155 446h-2l-155 -446h-40z" />
    <glyph glyph-name="x" unicode="x" horiz-adv-x="519" 
d="M236 221h-1l-159 -221h-58l190 262l-182 249h64l148 -208h1l150 208h58l-181 -249l190 -262h-63z" />
    <glyph glyph-name="y" unicode="y" horiz-adv-x="512" 
d="M254 -23q-22 -58 -38.5 -90t-42 -52.5t-63.5 -20.5q-32 0 -63 14v46q33 -14 54 -14q26 0 44 15t28 34t22 50l20 49l-203 503h55l174 -435h4l175 435h50l-202 -498q-10 -24 -14 -36z" />
    <glyph glyph-name="z" unicode="z" horiz-adv-x="463" 
d="M36 24l277 441h-260v46h335v-24l-278 -441h286v-46h-360v24z" />
    <glyph glyph-name="braceleft" unicode="{" horiz-adv-x="315" 
d="M144 234q17 -25 19 -78l7 -218q1 -31 26 -45t53 -14v-38q-52 0 -92 27t-40 85v214q0 29 -23.5 43.5t-53.5 13.5v79q30 -1 53.5 13.5t23.5 43.5v214q0 58 40 85t92 27v-38q-28 0 -53 -14t-26 -45l-7 -218q-2 -53 -19 -78t-64 -25v-9q47 0 64 -25z" />
    <glyph glyph-name="bar" unicode="|" horiz-adv-x="248" 
d="M84 720h52v-919h-52v919z" />
    <glyph glyph-name="braceright" unicode="}" horiz-adv-x="315" 
d="M145 293q-17 25 -19 78l-7 218q-1 31 -26 45t-53 14v38q52 0 92 -27t40 -85v-214q0 -29 23.5 -43.5t53.5 -13.5v-79q-30 1 -53.5 -13.5t-23.5 -43.5v-214q0 -58 -40 -85t-92 -27v38q28 0 53 14t26 45l7 218q2 53 19 78t64 25v9q-47 0 -64 25z" />
    <glyph glyph-name="asciitilde" unicode="~" horiz-adv-x="689" 
d="M604 291.5q-24 -20.5 -60.5 -38t-78.5 -17.5q-28 0 -54 8.5t-63 24.5q-40 17 -66 25t-55 8q-42 0 -78.5 -17.5t-60.5 -38t-24 -22.5v60q0 2 24 22.5t60.5 38t78.5 17.5q28 0 54 -8.5t63 -24.5q40 -17 66 -25t55 -8q42 0 78.5 17.5t60.5 38t24 22.5v-60q0 -2 -24 -22.5z
" />
    <glyph glyph-name="uni00A0" unicode="&#xa0;" horiz-adv-x="244" 
 />
    <glyph glyph-name="exclamdown" unicode="&#xa1;" horiz-adv-x="254" 
d="M135 510v-69h-65v69h65zM124 369l11 -545h-66l13 545h42z" />
    <glyph glyph-name="cent" unicode="&#xa2;" horiz-adv-x="527" 
d="M278 608q81 -5 132 -59.5t51 -146.5h-50q0 78 -42.5 119.5t-107.5 41.5q-72 0 -117 -53t-45 -153v-27q0 -100 45.5 -153t117.5 -53q65 0 107 41t42 120h50q0 -92 -51 -146.5t-132 -59.5l10 -85h-50l9 85q-91 5 -145 72.5t-54 184.5v15q0 117 54 185t145 73l-9 84h50z" />
    <glyph glyph-name="sterling" unicode="&#xa3;" horiz-adv-x="597" 
d="M168 362v162q0 84 54.5 130t138.5 46t136.5 -46t52.5 -130v-19h-50v13q0 68 -38.5 101t-100.5 33t-100.5 -33.5t-38.5 -100.5v-156h228v-48h-228v-37l-13 -229h324v-48h-466v48h101v266h-139v48h139z" />
    <glyph glyph-name="currency" unicode="&#xa4;" horiz-adv-x="624" 
d="M507 490q27 -30 40 -70t13 -84t-13 -84t-40 -70l55 -54l-42 -42l-56 56q-31 -27 -70 -40.5t-82 -13.5t-82 13.5t-70 40.5l-56 -56l-42 42l55 54q-27 30 -40 70t-13 84t13 84t40 70l-55 54l42 42l56 -56q31 27 70 40.5t82 13.5t82 -13.5t70 -40.5l56 56l42 -42zM213 508
q-46 -27 -73.5 -72.5t-27.5 -99.5t27.5 -100t73.5 -73t99 -27t99 27t73 73t27 100t-27 99.5t-73 72.5t-99 27t-99 -27z" />
    <glyph glyph-name="yen" unicode="&#xa5;" horiz-adv-x="634" 
d="M174 433l-148 253h63l211 -365h3l214 365h55l-149 -253h123v-49h-151l-52 -89h203v-47h-220v-248h-54v248h-220v47h203l-52 89h-151v49h122z" />
    <glyph glyph-name="brokenbar" unicode="&#xa6;" horiz-adv-x="269" 
d="M155 686v-262h-65v262h65zM155 262v-262h-65v262h65z" />
    <glyph glyph-name="section" unicode="&#xa7;" horiz-adv-x="514" 
d="M423 161q-24 -32 -79 -61q43 -26 67 -58t24 -77q0 -66 -50 -108t-148 -42q-64 0 -106 21t-61.5 52.5t-19.5 64.5l1 14h50v-13q0 -32 28.5 -62.5t116.5 -30.5q85 0 111.5 32t26.5 70q0 33 -22.5 58.5t-56 44t-88.5 42.5q-58 25 -94 45t-60.5 48.5t-24.5 66.5
q0 49 23.5 81.5t78.5 61.5q-43 26 -66.5 58t-23.5 77q0 66 50 108t148 42q64 0 106 -21t61.5 -52.5t19.5 -64.5l-1 -14h-50v13q0 32 -28.5 62.5t-116.5 30.5q-85 0 -111.5 -32t-26.5 -70q0 -33 22.5 -58.5t56 -44t88.5 -42.5q58 -25 94 -45t60.5 -48.5t24.5 -66.5
q0 -50 -24 -82zM375.5 284q-20.5 23 -51.5 39.5t-82 37.5q-46 20 -68 31q-36 -17 -60.5 -42.5t-24.5 -69.5q0 -31 20.5 -54t51 -39.5t82.5 -38.5q38 -16 67 -30q86 40 86 113q0 30 -20.5 53z" />
    <glyph glyph-name="dieresis" unicode="&#xa8;" horiz-adv-x="440" 
d="M146 720v-69h-65v69h65zM322 720v-69h-65v69h65z" />
    <glyph glyph-name="copyright" unicode="&#xa9;" horiz-adv-x="780" 
d="M696.5 166q-47.5 -81 -129 -128.5t-177.5 -47.5q-97 0 -178 47.5t-128.5 128.5t-47.5 178q0 96 47.5 177t129 128t177.5 47t177.5 -47.5t129 -128t47.5 -176.5q0 -97 -47.5 -178zM673.5 507q-44.5 75 -119.5 119t-164 44t-164.5 -44t-119.5 -118.5t-44 -163.5t44 -164.5
t119.5 -119.5t164.5 -44t164 44t119.5 119.5t44.5 164.5q0 88 -44.5 163zM482.5 491q-34.5 31 -88.5 31t-88.5 -31t-34.5 -90v-114q0 -61 34.5 -91.5t88.5 -30.5q56 0 90 32.5t34 94.5h35q0 -82 -44 -122.5t-115 -40.5q-73 0 -118 40.5t-45 124.5v99q0 83 45.5 124t117.5 41
q71 0 115 -41t44 -123h-36v7q0 59 -34.5 90z" />
    <glyph glyph-name="ordfeminine" unicode="&#xaa;" horiz-adv-x="415" 
d="M312 410q12 0 35 14v-37q-19 -14 -43 -14q-21 0 -31 12.5t-12 35.5q-38 -48 -106 -48q-100 0 -100 90q0 43 25.5 65t68.5 29t112 7v33q0 35 -17 49t-57 14q-37 0 -59 -14t-22 -43v-9h-38q-2 4 -2 15q0 41 34 64.5t87 23.5q58 0 86 -23t28 -71v-178q0 -15 11 -15zM134 515
q-39 -12 -39 -53q0 -27 16 -39.5t50 -12.5q41 0 70.5 26t29.5 76v15q-88 0 -127 -12z" />
    <glyph glyph-name="guillemotleft" unicode="&#xab;" horiz-adv-x="460" 
d="M49 337l123 174h41l-97 -174l97 -174h-41zM231 337l124 174h41l-97 -174l97 -174h-41z" />
    <glyph glyph-name="logicalnot" unicode="&#xac;" horiz-adv-x="617" 
d="M491 184v192h-454v59h512v-251h-58z" />
    <glyph glyph-name="uni00AD" unicode="&#xad;" horiz-adv-x="391" 
d="M322 299v-62h-253v62h253z" />
    <glyph glyph-name="registered" unicode="&#xae;" horiz-adv-x="780" 
d="M696.5 166q-47.5 -81 -129 -128.5t-177.5 -47.5q-97 0 -178 47.5t-128.5 128.5t-47.5 178q0 96 47.5 177t129 128t177.5 47t177.5 -47.5t129 -128t47.5 -176.5q0 -97 -47.5 -178zM673.5 507q-44.5 75 -119.5 119t-164 44t-164.5 -44t-119.5 -118.5t-44 -163.5t44 -164.5
t119.5 -119.5t164.5 -44t164 44t119.5 119.5t44.5 164.5q0 88 -44.5 163zM554.5 135q-5.5 -1 -11.5 -1q-50 0 -50 81q0 68 -23.5 90.5t-49.5 22.5h-125v-193h-41v412h169q47 0 81 -29t34 -75q0 -34 -18.5 -59.5t-44.5 -36.5v-4q22 -9 39 -34.5t17 -79.5q0 -38 5 -54t26 -24
v-14q-2 -1 -7.5 -2zM478.5 385q22.5 22 22.5 53t-22 52t-54 21h-130v-148h130q31 0 53.5 22z" />
    <glyph glyph-name="macron" unicode="&#xaf;" horiz-adv-x="460" 
d="M71 736h318v-44h-318v44z" />
    <glyph glyph-name="degree" unicode="&#xb0;" horiz-adv-x="394" 
d="M326.5 470.5q-20.5 -34.5 -55 -54.5t-74.5 -20q-41 0 -75 20t-54.5 54.5t-20.5 75.5q0 40 20 74.5t54.5 55t75.5 20.5q40 0 74.5 -20.5t55 -55t20.5 -74.5q0 -41 -20.5 -75.5zM122 470q31 -31 75 -31t75 31t31 75t-31 75t-75 31t-75 -31t-31 -75t31 -75z" />
    <glyph glyph-name="plusminus" unicode="&#xb1;" 
d="M563 344v-58h-227v-166h-58v166h-227v58h227v167h58v-167h227zM57 58h500v-58h-500v58z" />
    <glyph glyph-name="uni00B2" unicode="&#xb2;" horiz-adv-x="384" 
d="M76 495.5q15 22.5 44 41.5l107 71q45 31 45 77q0 37 -21.5 59.5t-59.5 22.5q-37 0 -61 -24t-24 -60q0 -12 1 -19h-41q-1 5 -1 15q0 56 36 91t90 35q56 0 89 -33.5t33 -84.5q0 -40 -18.5 -67t-48.5 -47l-112 -75q-27 -18 -27 -38h208v-38h-254v19q0 32 15 54.5z" />
    <glyph glyph-name="uni00B3" unicode="&#xb3;" horiz-adv-x="363" 
d="M106.5 468q24.5 -19 63.5 -19t63.5 18.5t24.5 52.5q0 36 -25 54.5t-63 18.5h-47v37h44q36 0 59.5 17t23.5 49q0 33 -22.5 50.5t-57.5 17.5t-57.5 -18t-22.5 -50v-13h-40v13q0 49 34 77t86 28t86.5 -27.5t34.5 -77.5q0 -32 -12.5 -49.5t-39.5 -32.5q27 -12 43 -35.5
t16 -57.5q0 -49 -37 -78.5t-91 -29.5q-56 0 -92 29.5t-36 78.5v15h40v-16q0 -33 24.5 -52z" />
    <glyph glyph-name="acute" unicode="&#xb4;" horiz-adv-x="333" 
d="M164 720h65v-3l-111 -142h-50z" />
    <glyph glyph-name="uni00B5" unicode="&#xb5;" horiz-adv-x="612" 
d="M357 57q36 21 56.5 58t20.5 82v314h51v-442q0 -33 27 -33q23 0 50 16v-43q-28 -19 -64 -19q-34 0 -49 25.5t-15 60.5q-26 -41 -69 -63.5t-93 -22.5q-44 0 -83 15.5t-62 45.5q1 -5 3.5 -21t2.5 -29v-162h-51v672h51v-322q0 -75 38.5 -114t105.5 -39q44 0 80 21z" />
    <glyph glyph-name="paragraph" unicode="&#xb6;" horiz-adv-x="524" 
d="M212 249q-52 8 -95 38.5t-67.5 77.5t-24.5 101q0 66 29 116t79 77t111 27h210v-49h-66v-811h-52v811h-72v-811h-52v423z" />
    <glyph glyph-name="periodcentered" unicode="&#xb7;" horiz-adv-x="235" 
d="M150 323v-69h-65v69h65z" />
    <glyph glyph-name="cedilla" unicode="&#xb8;" horiz-adv-x="350" 
d="M139 -151q33 0 54.5 12.5t21.5 41.5q0 22 -17.5 34t-40.5 12h-22v34h25q46 0 76 -20.5t30 -68.5q0 -49 -36.5 -70t-81.5 -21q-43 0 -78 13v46q24 -13 69 -13z" />
    <glyph glyph-name="uni00B9" unicode="&#xb9;" horiz-adv-x="334" 
d="M50 460h102v285h-102v29q33 2 58.5 6.5t63.5 16.5h22v-337h77v-38h-221v38z" />
    <glyph glyph-name="ordmasculine" unicode="&#xba;" horiz-adv-x="392" 
d="M89.5 418.5q-36.5 41.5 -36.5 114.5v9q0 73 36.5 114.5t94.5 41.5q60 0 96.5 -41.5t36.5 -114.5v-9q0 -73 -36.5 -114.5t-96.5 -41.5q-58 0 -94.5 41.5zM250.5 442.5q25.5 29.5 25.5 87.5v15q0 57 -25.5 86.5t-66.5 29.5q-40 0 -65.5 -29.5t-25.5 -86.5v-15
q0 -57 25.5 -87t65.5 -30q41 0 66.5 29.5z" />
    <glyph glyph-name="guillemotright" unicode="&#xbb;" horiz-adv-x="460" 
d="M153 337l-97 174h41l124 -174l-124 -174h-41zM336 337l-97 174h41l123 -174l-123 -174h-41z" />
    <glyph glyph-name="onequarter" unicode="&#xbc;" horiz-adv-x="702" 
d="M36 349h102v285h-102v29q33 2 58.5 6.5t63.5 16.5h22v-337h77v-38h-221v38zM127 0l420 686h44l-417 -686h-47zM629 311h20v-176h43v-37h-43v-98h-41v98h-181v34q18 21 60.5 101.5t64.5 141.5h43q-21 -62 -56.5 -133t-62.5 -107h132v130q15 30 21 46z" />
    <glyph glyph-name="onehalf" unicode="&#xbd;" horiz-adv-x="726" 
d="M33 349h102v285h-102v29q33 2 58.5 6.5t63.5 16.5h22v-337h77v-38h-221v38zM124 0l420 686h44l-417 -686h-47zM454 73q15 22 44 42l107 71q45 31 45 77q0 37 -21.5 59.5t-59.5 22.5q-37 0 -61 -24t-24 -60q0 -12 1 -19h-41q-1 5 -1 15q0 56 36 91t90 35q56 0 89 -33.5
t33 -84.5q0 -40 -18.5 -67t-48.5 -47l-112 -75q-27 -18 -27 -38h208v-38h-254v19q0 32 15 54z" />
    <glyph glyph-name="threequarters" unicode="&#xbe;" horiz-adv-x="698" 
d="M95.5 359q24.5 -19 63.5 -19t63.5 18.5t24.5 52.5q0 36 -25 54.5t-63 18.5h-47v37h44q36 0 59.5 17t23.5 49q0 33 -22.5 50.5t-57.5 17.5t-57.5 -18t-22.5 -50v-13h-40v13q0 49 34 77t86 28t86.5 -27.5t34.5 -77.5q0 -32 -12.5 -49.5t-39.5 -32.5q27 -12 43 -35.5
t16 -57.5q0 -49 -37 -78.5t-91 -29.5q-56 0 -92 29.5t-36 78.5v15h40v-16q0 -33 24.5 -52zM147 0l420 686h44l-417 -686h-47zM649 311h20v-176h43v-37h-43v-98h-41v98h-181v34q18 21 60.5 101.5t64.5 141.5h43q-21 -62 -56.5 -133t-62.5 -107h132v130q15 30 21 46z" />
    <glyph glyph-name="questiondown" unicode="&#xbf;" horiz-adv-x="495" 
d="M188 442v69h65v-69h-65zM247 345v-78q0 -39 -18.5 -64.5t-54.5 -55.5q-42 -35 -63.5 -66.5t-21.5 -82.5q0 -48 30 -91.5t108 -43.5q90 0 121 51.5t31 102.5q0 9 -1 17.5t-2 11.5h54q1 -2 2 -10t1 -23q0 -30 -14.5 -75.5t-60 -84.5t-130.5 -39t-127.5 38t-54 78t-11.5 66
q0 46 13 78t31 52.5t48 45.5q35 31 50.5 52t15.5 56v65h54z" />
    <glyph glyph-name="Agrave" unicode="&#xc0;" horiz-adv-x="652" 
d="M189 892v3h65l96 -145h-50zM130 170l-70 -170h-56l284 686h50l284 -686h-59l-71 170h-362zM472 219l-159 393h-4l-159 -393h322z" />
    <glyph glyph-name="Aacute" unicode="&#xc1;" horiz-adv-x="652" 
d="M393 895h65v-3l-111 -142h-50zM130 170l-70 -170h-56l284 686h50l284 -686h-59l-71 170h-362zM472 219l-159 393h-4l-159 -393h322z" />
    <glyph glyph-name="Acircumflex" unicode="&#xc2;" horiz-adv-x="652" 
d="M343 895l134 -145h-60l-103 97l-103 -97h-60l134 145h58zM130 170l-70 -170h-56l284 686h50l284 -686h-59l-71 170h-362zM472 219l-159 393h-4l-159 -393h322z" />
    <glyph glyph-name="Atilde" unicode="&#xc3;" horiz-adv-x="652" 
d="M470 775.5q-24 -25.5 -77 -25.5q-22 0 -41.5 4t-49.5 13q-47 15 -76 15q-25 0 -38.5 -7.5t-18.5 -24.5h-37q0 30 24 56t77 26q22 0 41.5 -4t49.5 -13q47 -15 76 -15q25 0 38.5 7.5t18.5 24.5h37q0 -31 -24 -56.5zM130 170l-70 -170h-56l284 686h50l284 -686h-59l-71 170
h-362zM472 219l-159 393h-4l-159 -393h322z" />
    <glyph glyph-name="Adieresis" unicode="&#xc4;" horiz-adv-x="652" 
d="M259 819v-69h-65v69h65zM435 819v-69h-65v69h65zM130 170l-70 -170h-56l284 686h50l284 -686h-59l-71 170h-362zM472 219l-159 393h-4l-159 -393h322z" />
    <glyph glyph-name="Aring" unicode="&#xc5;" horiz-adv-x="652" 
d="M385.5 749.5q-29.5 -29.5 -71.5 -29.5t-71.5 29t-29.5 71t29.5 71.5t71.5 29.5t71.5 -29.5t29.5 -71.5q0 -41 -29.5 -70.5zM360 866q-19 19 -46 19t-46 -19t-19 -46t19 -45.5t46 -18.5t46 19t19 45q0 27 -19 46zM130 170l-70 -170h-56l284 686h50l284 -686h-59l-71 170
h-362zM472 219l-159 393h-4l-159 -393h322z" />
    <glyph glyph-name="AE" unicode="&#xc6;" horiz-adv-x="983" 
d="M517 170h-354l-94 -170h-62l381 686h515l-12 -48h-444l72 -264h333v-48h-320l76 -278h296l9 -48h-349zM504 219l-103 389l-3 -1l-208 -388h314z" />
    <glyph glyph-name="Ccedilla" unicode="&#xc7;" horiz-adv-x="663" 
d="M503 50q-71 -60 -183 -60q-80 0 -136.5 29t-89 104t-32.5 207v26q0 132 32.5 207t89 104t136.5 29q113 0 183.5 -59t70.5 -203h-53q0 119 -55 166.5t-146 47.5q-98 0 -151 -60.5t-53 -219.5v-50q0 -159 53 -219.5t151 -60.5q201 0 201 213h53q0 -141 -71 -201zM290 -151
q33 0 54.5 12.5t21.5 41.5q0 22 -17.5 34t-40.5 12h-22v34h25q46 0 76 -20.5t30 -68.5q0 -49 -36.5 -70t-81.5 -21q-43 0 -78 13v46q24 -13 69 -13z" />
    <glyph glyph-name="Egrave" unicode="&#xc8;" horiz-adv-x="593" 
d="M184 892v3h65l96 -145h-50zM92 686h424l-10 -48h-360v-264h319v-48h-319v-278h369l11 -48h-434v686z" />
    <glyph glyph-name="Eacute" unicode="&#xc9;" horiz-adv-x="593" 
d="M379 895h65v-3l-111 -142h-50zM92 686h424l-10 -48h-360v-264h319v-48h-319v-278h369l11 -48h-434v686z" />
    <glyph glyph-name="Ecircumflex" unicode="&#xca;" horiz-adv-x="593" 
d="M336 895l134 -145h-60l-103 97l-103 -97h-60l134 145h58zM92 686h424l-10 -48h-360v-264h319v-48h-319v-278h369l11 -48h-434v686z" />
    <glyph glyph-name="Edieresis" unicode="&#xcb;" horiz-adv-x="593" 
d="M247 819v-69h-65v69h65zM423 819v-69h-65v69h65zM92 686h424l-10 -48h-360v-264h319v-48h-319v-278h369l11 -48h-434v686z" />
    <glyph glyph-name="Igrave" unicode="&#xcc;" horiz-adv-x="364" 
d="M10 892v3h65l96 -145h-50zM244 686v-49h-79v-588h79v-49h-212v49h79v588h-79v49h212z" />
    <glyph glyph-name="Iacute" unicode="&#xcd;" horiz-adv-x="364" 
d="M231 895h65v-3l-111 -142h-50zM265 686v-49h-79v-588h79v-49h-212v49h79v588h-79v49h212z" />
    <glyph glyph-name="Icircumflex" unicode="&#xce;" horiz-adv-x="364" 
d="M165 895l134 -145h-60l-103 97l-103 -97h-60l134 145h58zM242 686v-49h-79v-588h79v-49h-212v49h79v588h-79v49h212z" />
    <glyph glyph-name="Idieresis" unicode="&#xcf;" horiz-adv-x="364" 
d="M94 820v-69h-65v69h65zM270 820v-69h-65v69h65zM255 686v-49h-79v-588h79v-49h-212v49h79v588h-79v49h212z" />
    <glyph glyph-name="Eth" unicode="&#xd0;" horiz-adv-x="681" 
d="M105 367v319h220q123 0 194.5 -74.5t71.5 -255.5v-25q0 -180 -72 -255.5t-194 -75.5h-220v319h-100v48h100zM480 109q57 61 57 213v43q0 273 -212 273h-166v-271h172v-48h-172v-271h166q98 0 155 61z" />
    <glyph glyph-name="Ntilde" unicode="&#xd1;" horiz-adv-x="694" 
d="M497 775.5q-24 -25.5 -77 -25.5q-22 0 -41.5 4t-49.5 13q-47 15 -76 15q-25 0 -38.5 -7.5t-18.5 -24.5h-37q0 30 24 56t77 26q22 0 41.5 -4t49.5 -13q47 -15 76 -15q25 0 38.5 7.5t18.5 24.5h37q0 -31 -24 -56.5zM143 583h-3v-583h-48v686h46l382 -583h3v583h48v-686h-48
z" />
    <glyph glyph-name="Ograve" unicode="&#xd2;" horiz-adv-x="690" 
d="M198 892v3h65l96 -145h-50zM131.5 64.5q-70.5 74.5 -70.5 265.5v26q0 191 70.5 265.5t195.5 74.5t195.5 -74.5t70.5 -265.5v-26q0 -191 -70.5 -265.5t-195.5 -74.5t-195.5 74.5zM482.5 99q56.5 61 56.5 219v50q0 158 -56.5 219t-155.5 61t-155.5 -61t-56.5 -219v-50
q0 -158 56.5 -219t155.5 -61t155.5 61z" />
    <glyph glyph-name="Oacute" unicode="&#xd3;" horiz-adv-x="690" 
d="M401 895h65v-3l-111 -142h-50zM131.5 64.5q-70.5 74.5 -70.5 265.5v26q0 191 70.5 265.5t195.5 74.5t195.5 -74.5t70.5 -265.5v-26q0 -191 -70.5 -265.5t-195.5 -74.5t-195.5 74.5zM482.5 99q56.5 61 56.5 219v50q0 158 -56.5 219t-155.5 61t-155.5 -61t-56.5 -219v-50
q0 -158 56.5 -219t155.5 -61t155.5 61z" />
    <glyph glyph-name="Ocircumflex" unicode="&#xd4;" horiz-adv-x="690" 
d="M361 895l134 -145h-60l-103 97l-103 -97h-60l134 145h58zM131.5 64.5q-70.5 74.5 -70.5 265.5v26q0 191 70.5 265.5t195.5 74.5t195.5 -74.5t70.5 -265.5v-26q0 -191 -70.5 -265.5t-195.5 -74.5t-195.5 74.5zM482.5 99q56.5 61 56.5 219v50q0 158 -56.5 219t-155.5 61
t-155.5 -61t-56.5 -219v-50q0 -158 56.5 -219t155.5 -61t155.5 61z" />
    <glyph glyph-name="Otilde" unicode="&#xd5;" horiz-adv-x="690" 
d="M490 776.5q-24 -25.5 -77 -25.5q-22 0 -41.5 4t-49.5 13q-47 15 -76 15q-25 0 -38.5 -7.5t-18.5 -24.5h-37q0 30 24 56t77 26q22 0 41.5 -4t49.5 -13q47 -15 76 -15q25 0 38.5 7.5t18.5 24.5h37q0 -31 -24 -56.5zM131.5 64.5q-70.5 74.5 -70.5 265.5v26q0 191 70.5 265.5
t195.5 74.5t195.5 -74.5t70.5 -265.5v-26q0 -191 -70.5 -265.5t-195.5 -74.5t-195.5 74.5zM482.5 99q56.5 61 56.5 219v50q0 158 -56.5 219t-155.5 61t-155.5 -61t-56.5 -219v-50q0 -158 56.5 -219t155.5 -61t155.5 61z" />
    <glyph glyph-name="Odieresis" unicode="&#xd6;" horiz-adv-x="690" 
d="M272 820v-69h-65v69h65zM448 820v-69h-65v69h65zM131.5 64.5q-70.5 74.5 -70.5 265.5v26q0 191 70.5 265.5t195.5 74.5t195.5 -74.5t70.5 -265.5v-26q0 -191 -70.5 -265.5t-195.5 -74.5t-195.5 74.5zM482.5 99q56.5 61 56.5 219v50q0 158 -56.5 219t-155.5 61t-155.5 -61
t-56.5 -219v-50q0 -158 56.5 -219t155.5 -61t155.5 61z" />
    <glyph glyph-name="multiply" unicode="&#xd7;" 
d="M461 457l41 -41l-161 -161l160 -160l-41 -41l-160 160l-160 -160l-41 41l160 160l-160 161l41 41l160 -161z" />
    <glyph glyph-name="Oslash" unicode="&#xd8;" horiz-adv-x="690" 
d="M593 356v-26q0 -191 -70.5 -265.5t-195.5 -74.5q-102 0 -162 44l-59 -99h-45l75 125q-75 83 -75 270v26q0 191 70.5 265.5t195.5 74.5q100 0 162 -44l61 102h44l-77 -128q76 -82 76 -270zM164 108l298 499q-49 41 -135 41q-99 0 -155.5 -61t-56.5 -219v-50
q0 -142 49 -210zM482.5 99q56.5 61 56.5 219v50q0 141 -50 210l-298 -499q49 -41 136 -41q99 0 155.5 61z" />
    <glyph glyph-name="Ugrave" unicode="&#xd9;" horiz-adv-x="680" 
d="M195 892v3h65l96 -145h-50zM563 220q0 -69 -29.5 -121t-84 -80.5t-125.5 -28.5t-125 28.5t-83.5 80.5t-29.5 121v466h54v-464q0 -85 48.5 -134.5t135.5 -49.5t136 50.5t49 133.5v464h54v-466z" />
    <glyph glyph-name="Uacute" unicode="&#xda;" horiz-adv-x="680" 
d="M394 895h65v-3l-111 -142h-50zM563 220q0 -69 -29.5 -121t-84 -80.5t-125.5 -28.5t-125 28.5t-83.5 80.5t-29.5 121v466h54v-464q0 -85 48.5 -134.5t135.5 -49.5t136 50.5t49 133.5v464h54v-466z" />
    <glyph glyph-name="Ucircumflex" unicode="&#xdb;" horiz-adv-x="680" 
d="M354 895l134 -145h-60l-103 97l-103 -97h-60l134 145h58zM563 220q0 -69 -29.5 -121t-84 -80.5t-125.5 -28.5t-125 28.5t-83.5 80.5t-29.5 121v466h54v-464q0 -85 48.5 -134.5t135.5 -49.5t136 50.5t49 133.5v464h54v-466z" />
    <glyph glyph-name="Udieresis" unicode="&#xdc;" horiz-adv-x="680" 
d="M269 820v-69h-65v69h65zM445 820v-69h-65v69h65zM563 220q0 -69 -29.5 -121t-84 -80.5t-125.5 -28.5t-125 28.5t-83.5 80.5t-29.5 121v466h54v-464q0 -85 48.5 -134.5t135.5 -49.5t136 50.5t49 133.5v464h54v-466z" />
    <glyph glyph-name="Yacute" unicode="&#xdd;" horiz-adv-x="572" 
d="M351 895h65v-3l-111 -142h-50zM295 0h-54v266l-246 420h63l211 -365h3l214 365h55l-246 -420v-266z" />
    <glyph glyph-name="Thorn" unicode="&#xde;" horiz-adv-x="633" 
d="M92 686h54v-135h227q51 0 94 -25t68 -68t25 -94t-25 -94t-68 -68t-94 -25h-227v-177h-54v686zM437 242.5q33 18.5 52 51t19 70.5t-19 70t-52 50.5t-71 18.5h-220v-279h220q38 0 71 18.5z" />
    <glyph glyph-name="germandbls" unicode="&#xdf;" horiz-adv-x="614" 
d="M496.5 314q34.5 -51 34.5 -111q0 -56 -29 -102.5t-78 -73.5t-108 -27h-92v46h92q45 0 82.5 21t59.5 57t22 79t-22 79t-59.5 57.5t-82.5 21.5h-92v46h81q41 0 76.5 18.5t56 50t20.5 68.5q0 58 -40 98t-103 40q-74 0 -118 -46t-44 -122v-580h-51v531h-56v46h56q0 65 27 114
t75 76t111 27q56 0 100 -24.5t69 -66.5t25 -93q0 -50 -29.5 -94.5t-72.5 -61.5l2 -3q53 -20 87.5 -71z" />
    <glyph glyph-name="agrave" unicode="&#xe0;" horiz-adv-x="585" 
d="M139 717v3h65l96 -145h-50zM474 36q23 0 50 16v-43q-28 -19 -64 -19t-50 26.5t-14 72.5q-31 -51 -77.5 -75t-109.5 -24q-71 0 -116 32.5t-45 110.5q0 71 42.5 106.5t115 46t190.5 10.5v64q0 64 -30.5 89.5t-102.5 25.5q-66 0 -106 -25.5t-40 -78.5v-16h-49q-2 16 -2 26
q0 65 55.5 102.5t141.5 37.5q93 0 138.5 -37t45.5 -114v-301q0 -33 27 -33zM229.5 243q-60.5 -7 -95.5 -32.5t-35 -78.5q0 -50 28.5 -73t91.5 -23q45 0 85.5 20t66 60.5t25.5 99.5v34q-106 0 -166.5 -7z" />
    <glyph glyph-name="aacute" unicode="&#xe1;" horiz-adv-x="585" 
d="M347 720h65v-3l-111 -142h-50zM474 36q23 0 50 16v-43q-28 -19 -64 -19t-50 26.5t-14 72.5q-31 -51 -77.5 -75t-109.5 -24q-71 0 -116 32.5t-45 110.5q0 71 42.5 106.5t115 46t190.5 10.5v64q0 64 -30.5 89.5t-102.5 25.5q-66 0 -106 -25.5t-40 -78.5v-16h-49
q-2 16 -2 26q0 65 55.5 102.5t141.5 37.5q93 0 138.5 -37t45.5 -114v-301q0 -33 27 -33zM229.5 243q-60.5 -7 -95.5 -32.5t-35 -78.5q0 -50 28.5 -73t91.5 -23q45 0 85.5 20t66 60.5t25.5 99.5v34q-106 0 -166.5 -7z" />
    <glyph glyph-name="acircumflex" unicode="&#xe2;" horiz-adv-x="585" 
d="M301 720l134 -145h-60l-103 97l-103 -97h-60l134 145h58zM474 36q23 0 50 16v-43q-28 -19 -64 -19t-50 26.5t-14 72.5q-31 -51 -77.5 -75t-109.5 -24q-71 0 -116 32.5t-45 110.5q0 71 42.5 106.5t115 46t190.5 10.5v64q0 64 -30.5 89.5t-102.5 25.5q-66 0 -106 -25.5
t-40 -78.5v-16h-49q-2 16 -2 26q0 65 55.5 102.5t141.5 37.5q93 0 138.5 -37t45.5 -114v-301q0 -33 27 -33zM229.5 243q-60.5 -7 -95.5 -32.5t-35 -78.5q0 -50 28.5 -73t91.5 -23q45 0 85.5 20t66 60.5t25.5 99.5v34q-106 0 -166.5 -7z" />
    <glyph glyph-name="atilde" unicode="&#xe3;" horiz-adv-x="585" 
d="M419 663.5q-24 -25.5 -77 -25.5q-22 0 -41.5 4t-49.5 13q-47 15 -76 15q-25 0 -38.5 -7.5t-18.5 -24.5h-37q0 30 24 56t77 26q22 0 41.5 -4t49.5 -13q47 -15 76 -15q25 0 38.5 7.5t18.5 24.5h37q0 -31 -24 -56.5zM474 36q23 0 50 16v-43q-28 -19 -64 -19t-50 26.5
t-14 72.5q-31 -51 -77.5 -75t-109.5 -24q-71 0 -116 32.5t-45 110.5q0 71 42.5 106.5t115 46t190.5 10.5v64q0 64 -30.5 89.5t-102.5 25.5q-66 0 -106 -25.5t-40 -78.5v-16h-49q-2 16 -2 26q0 65 55.5 102.5t141.5 37.5q93 0 138.5 -37t45.5 -114v-301q0 -33 27 -33z
M229.5 243q-60.5 -7 -95.5 -32.5t-35 -78.5q0 -50 28.5 -73t91.5 -23q45 0 85.5 20t66 60.5t25.5 99.5v34q-106 0 -166.5 -7z" />
    <glyph glyph-name="adieresis" unicode="&#xe4;" horiz-adv-x="585" 
d="M208 720v-69h-65v69h65zM384 720v-69h-65v69h65zM474 36q23 0 50 16v-43q-28 -19 -64 -19t-50 26.5t-14 72.5q-31 -51 -77.5 -75t-109.5 -24q-71 0 -116 32.5t-45 110.5q0 71 42.5 106.5t115 46t190.5 10.5v64q0 64 -30.5 89.5t-102.5 25.5q-66 0 -106 -25.5t-40 -78.5
v-16h-49q-2 16 -2 26q0 65 55.5 102.5t141.5 37.5q93 0 138.5 -37t45.5 -114v-301q0 -33 27 -33zM229.5 243q-60.5 -7 -95.5 -32.5t-35 -78.5q0 -50 28.5 -73t91.5 -23q45 0 85.5 20t66 60.5t25.5 99.5v34q-106 0 -166.5 -7z" />
    <glyph glyph-name="aring" unicode="&#xe5;" horiz-adv-x="585" 
d="M335.5 584.5q-29.5 -29.5 -71.5 -29.5t-71.5 29t-29.5 71t29.5 71.5t71.5 29.5t71.5 -29.5t29.5 -71.5q0 -41 -29.5 -70.5zM310 701q-19 19 -46 19t-46 -19t-19 -46t19 -45.5t46 -18.5t46 19t19 45q0 27 -19 46zM474 36q23 0 50 16v-43q-28 -19 -64 -19t-50 26.5
t-14 72.5q-31 -51 -77.5 -75t-109.5 -24q-71 0 -116 32.5t-45 110.5q0 71 42.5 106.5t115 46t190.5 10.5v64q0 64 -30.5 89.5t-102.5 25.5q-66 0 -106 -25.5t-40 -78.5v-16h-49q-2 16 -2 26q0 65 55.5 102.5t141.5 37.5q93 0 138.5 -37t45.5 -114v-301q0 -33 27 -33z
M229.5 243q-60.5 -7 -95.5 -32.5t-35 -78.5q0 -50 28.5 -73t91.5 -23q45 0 85.5 20t66 60.5t25.5 99.5v34q-106 0 -166.5 -7z" />
    <glyph glyph-name="ae" unicode="&#xe6;" horiz-adv-x="895" 
d="M782.5 82q-26.5 -45 -71.5 -68.5t-101 -23.5q-65 0 -114.5 32t-75.5 93q-30 -65 -88 -95t-123 -30q-75 0 -118 32t-43 111q0 71 42.5 106.5t115 46t190.5 10.5v64q0 64 -30.5 89.5t-102.5 25.5q-66 0 -106 -25.5t-40 -78.5v-16h-49q-2 16 -2 26q0 65 55.5 102.5
t141.5 37.5q144 0 175 -91q29 44 72.5 67.5t98.5 23.5q57 0 102.5 -24.5t71.5 -71t26 -111.5v-64h-362v-8q0 -100 45.5 -153t117.5 -53q64 0 106.5 39t42.5 114h50q0 -62 -26.5 -107zM498 429q-44 -46 -50 -133h311v18q0 78 -42.5 119.5t-107.5 41.5q-67 0 -111 -46z
M229.5 243q-60.5 -7 -95.5 -32.5t-35 -78.5q0 -51 26.5 -73.5t93.5 -22.5q45 0 85.5 20t66 60.5t25.5 99.5v34q-106 0 -166.5 -7z" />
    <glyph glyph-name="ccedilla" unicode="&#xe7;" horiz-adv-x="544" 
d="M438 85.5q-26 -46.5 -71 -71t-102 -24.5q-63 0 -111.5 30.5t-75.5 88.5t-27 139v15q0 81 26.5 139t75 88.5t111.5 30.5q57 0 102.5 -24.5t71.5 -71t26 -111.5h-50q0 78 -42.5 119.5t-107.5 41.5q-72 0 -117 -53t-45 -153v-27q0 -100 45.5 -153t117.5 -53q65 0 107 41
t42 120h50q0 -65 -26 -111.5zM235 -151q33 0 54.5 12.5t21.5 41.5q0 22 -17.5 34t-40.5 12h-22v34h25q46 0 76 -20.5t30 -68.5q0 -49 -36.5 -70t-81.5 -21q-43 0 -78 13v46q24 -13 69 -13z" />
    <glyph glyph-name="egrave" unicode="&#xe8;" horiz-adv-x="556" 
d="M134 717v3h65l96 -145h-50zM437.5 82q-26.5 -45 -71.5 -68.5t-101 -23.5q-63 0 -111.5 30.5t-75.5 88.5t-27 139v15q0 81 26.5 139t75 88.5t111.5 30.5q57 0 102.5 -24.5t71.5 -71t26 -111.5v-64h-362v-8q0 -100 45.5 -153t117.5 -53q64 0 106.5 39t42.5 114h50
q0 -62 -26.5 -107zM153 429q-44 -46 -50 -133h311v18q0 78 -42.5 119.5t-107.5 41.5q-67 0 -111 -46z" />
    <glyph glyph-name="eacute" unicode="&#xe9;" horiz-adv-x="556" 
d="M341 720h65v-3l-111 -142h-50zM437.5 82q-26.5 -45 -71.5 -68.5t-101 -23.5q-63 0 -111.5 30.5t-75.5 88.5t-27 139v15q0 81 26.5 139t75 88.5t111.5 30.5q57 0 102.5 -24.5t71.5 -71t26 -111.5v-64h-362v-8q0 -100 45.5 -153t117.5 -53q64 0 106.5 39t42.5 114h50
q0 -62 -26.5 -107zM153 429q-44 -46 -50 -133h311v18q0 78 -42.5 119.5t-107.5 41.5q-67 0 -111 -46z" />
    <glyph glyph-name="ecircumflex" unicode="&#xea;" horiz-adv-x="556" 
d="M295 720l134 -145h-60l-103 97l-103 -97h-60l134 145h58zM437.5 82q-26.5 -45 -71.5 -68.5t-101 -23.5q-63 0 -111.5 30.5t-75.5 88.5t-27 139v15q0 81 26.5 139t75 88.5t111.5 30.5q57 0 102.5 -24.5t71.5 -71t26 -111.5v-64h-362v-8q0 -100 45.5 -153t117.5 -53
q64 0 106.5 39t42.5 114h50q0 -62 -26.5 -107zM153 429q-44 -46 -50 -133h311v18q0 78 -42.5 119.5t-107.5 41.5q-67 0 -111 -46z" />
    <glyph glyph-name="edieresis" unicode="&#xeb;" horiz-adv-x="556" 
d="M215 720v-69h-65v69h65zM391 720v-69h-65v69h65zM437.5 82q-26.5 -45 -71.5 -68.5t-101 -23.5q-63 0 -111.5 30.5t-75.5 88.5t-27 139v15q0 81 26.5 139t75 88.5t111.5 30.5q57 0 102.5 -24.5t71.5 -71t26 -111.5v-64h-362v-8q0 -100 45.5 -153t117.5 -53q64 0 106.5 39
t42.5 114h50q0 -62 -26.5 -107zM153 429q-44 -46 -50 -133h311v18q0 78 -42.5 119.5t-107.5 41.5q-67 0 -111 -46z" />
    <glyph glyph-name="igrave" unicode="&#xec;" horiz-adv-x="260" 
d="M6 717v3h65l96 -145h-50zM114 511h51v-511h-51v511z" />
    <glyph glyph-name="iacute" unicode="&#xed;" horiz-adv-x="260" 
d="M189 720h65v-3l-111 -142h-50zM95 511h51v-511h-51v511z" />
    <glyph glyph-name="icircumflex" unicode="&#xee;" horiz-adv-x="260" 
d="M161 720l134 -145h-60l-103 97l-103 -97h-60l134 145h58zM108 511h51v-511h-51v511z" />
    <glyph glyph-name="idieresis" unicode="&#xef;" horiz-adv-x="260" 
d="M76 720v-69h-65v69h65zM252 720v-69h-65v69h65zM106 511h51v-511h-51v511z" />
    <glyph glyph-name="eth" unicode="&#xf0;" horiz-adv-x="575" 
d="M243 661l104 50l23 -23l-99 -48q96 -74 154.5 -169.5t58.5 -207.5v-15q0 -81 -27.5 -139t-76.5 -88.5t-112 -30.5t-112 30.5t-76.5 88.5t-27.5 139v15q0 81 27.5 139t76.5 88.5t112 30.5q38 0 75 -13q-46 55 -113 112l-102 -50l-26 23l101 49q-35 27 -92 65l37 17
q62 -39 95 -63zM387 89q46 53 46 153v27q0 100 -46 153t-119 53t-119 -53t-46 -153v-27q0 -100 46 -153t119 -53t119 53z" />
    <glyph glyph-name="ntilde" unicode="&#xf1;" horiz-adv-x="593" 
d="M448 662.5q-24 -25.5 -77 -25.5q-22 0 -41.5 4t-49.5 13q-47 15 -76 15q-25 0 -38.5 -7.5t-18.5 -24.5h-37q0 30 24 56t77 26q22 0 41.5 -4t49.5 -13q47 -15 76 -15q25 0 38.5 7.5t18.5 24.5h37q0 -31 -24 -56.5zM435 314q0 81 -37.5 121t-106.5 40q-44 0 -80 -21
t-56.5 -58t-20.5 -82v-314h-51v511h34l11 -76q26 40 71.5 63t96.5 23q84 0 136.5 -48.5t52.5 -143.5v-329h-50v314z" />
    <glyph glyph-name="ograve" unicode="&#xf2;" horiz-adv-x="574" 
d="M141 717v3h65l96 -145h-50zM156 20.5q-49 30.5 -76.5 88.5t-27.5 139v15q0 81 27.5 139t76.5 88.5t112 30.5t112 -30.5t76.5 -88.5t27.5 -139v-15q0 -81 -27.5 -139t-76.5 -88.5t-112 -30.5t-112 30.5zM387 89q46 53 46 153v27q0 100 -46 153t-119 53t-119 -53t-46 -153
v-27q0 -100 46 -153t119 -53t119 53z" />
    <glyph glyph-name="oacute" unicode="&#xf3;" horiz-adv-x="574" 
d="M350 720h65v-3l-111 -142h-50zM156 20.5q-49 30.5 -76.5 88.5t-27.5 139v15q0 81 27.5 139t76.5 88.5t112 30.5t112 -30.5t76.5 -88.5t27.5 -139v-15q0 -81 -27.5 -139t-76.5 -88.5t-112 -30.5t-112 30.5zM387 89q46 53 46 153v27q0 100 -46 153t-119 53t-119 -53
t-46 -153v-27q0 -100 46 -153t119 -53t119 53z" />
    <glyph glyph-name="ocircumflex" unicode="&#xf4;" horiz-adv-x="574" 
d="M300 720l134 -145h-60l-103 97l-103 -97h-60l134 145h58zM156 20.5q-49 30.5 -76.5 88.5t-27.5 139v15q0 81 27.5 139t76.5 88.5t112 30.5t112 -30.5t76.5 -88.5t27.5 -139v-15q0 -81 -27.5 -139t-76.5 -88.5t-112 -30.5t-112 30.5zM387 89q46 53 46 153v27
q0 100 -46 153t-119 53t-119 -53t-46 -153v-27q0 -100 46 -153t119 -53t119 53z" />
    <glyph glyph-name="otilde" unicode="&#xf5;" horiz-adv-x="574" 
d="M427 663.5q-24 -25.5 -77 -25.5q-22 0 -41.5 4t-49.5 13q-47 15 -76 15q-25 0 -38.5 -7.5t-18.5 -24.5h-37q0 30 24 56t77 26q22 0 41.5 -4t49.5 -13q47 -15 76 -15q25 0 38.5 7.5t18.5 24.5h37q0 -31 -24 -56.5zM156 20.5q-49 30.5 -76.5 88.5t-27.5 139v15
q0 81 27.5 139t76.5 88.5t112 30.5t112 -30.5t76.5 -88.5t27.5 -139v-15q0 -81 -27.5 -139t-76.5 -88.5t-112 -30.5t-112 30.5zM387 89q46 53 46 153v27q0 100 -46 153t-119 53t-119 -53t-46 -153v-27q0 -100 46 -153t119 -53t119 53z" />
    <glyph glyph-name="odieresis" unicode="&#xf6;" horiz-adv-x="574" 
d="M213 720v-69h-65v69h65zM389 720v-69h-65v69h65zM156 20.5q-49 30.5 -76.5 88.5t-27.5 139v15q0 81 27.5 139t76.5 88.5t112 30.5t112 -30.5t76.5 -88.5t27.5 -139v-15q0 -81 -27.5 -139t-76.5 -88.5t-112 -30.5t-112 30.5zM387 89q46 53 46 153v27q0 100 -46 153
t-119 53t-119 -53t-46 -153v-27q0 -100 46 -153t119 -53t119 53z" />
    <glyph glyph-name="divide" unicode="&#xf7;" 
d="M339 439v-69h-65v69h65zM51 284h512v-58h-512v58zM339 140v-69h-65v69h65z" />
    <glyph glyph-name="oslash" unicode="&#xf8;" horiz-adv-x="574" 
d="M52 248v15q0 81 27.5 139t76.5 88.5t112 30.5q67 0 119 -36l52 84h45l-67 -108q32 -34 49.5 -84t17.5 -114v-15q0 -81 -27.5 -139t-76.5 -88.5t-112 -30.5q-70 0 -121 36l-50 -81h-45l66 106q-66 69 -66 197zM145 94l217 351q-39 30 -94 30q-73 0 -119 -53t-46 -153v-27
q0 -93 42 -148zM387 89q46 53 46 153v27q0 95 -43 149l-218 -352q41 -30 96 -30q73 0 119 53z" />
    <glyph glyph-name="ugrave" unicode="&#xf9;" horiz-adv-x="618" 
d="M151 717v3h65l96 -145h-50zM360 13q-44 -23 -95 -23q-84 0 -135.5 48t-51.5 144v329h51v-314q0 -81 37.5 -121t106.5 -40q44 0 80 21t56.5 58t20.5 82v314h51v-442q0 -33 27 -33q23 0 50 16v-43q-28 -19 -64 -19q-34 0 -49 25.5t-15 60.5q-26 -40 -70 -63z" />
    <glyph glyph-name="uacute" unicode="&#xfa;" horiz-adv-x="618" 
d="M353 720h65v-3l-111 -142h-50zM360 13q-44 -23 -95 -23q-84 0 -135.5 48t-51.5 144v329h51v-314q0 -81 37.5 -121t106.5 -40q44 0 80 21t56.5 58t20.5 82v314h51v-442q0 -33 27 -33q23 0 50 16v-43q-28 -19 -64 -19q-34 0 -49 25.5t-15 60.5q-26 -40 -70 -63z" />
    <glyph glyph-name="ucircumflex" unicode="&#xfb;" horiz-adv-x="618" 
d="M309 720l134 -145h-60l-103 97l-103 -97h-60l134 145h58zM360 13q-44 -23 -95 -23q-84 0 -135.5 48t-51.5 144v329h51v-314q0 -81 37.5 -121t106.5 -40q44 0 80 21t56.5 58t20.5 82v314h51v-442q0 -33 27 -33q23 0 50 16v-43q-28 -19 -64 -19q-34 0 -49 25.5t-15 60.5
q-26 -40 -70 -63z" />
    <glyph glyph-name="udieresis" unicode="&#xfc;" horiz-adv-x="618" 
d="M221 720v-69h-65v69h65zM397 720v-69h-65v69h65zM360 13q-44 -23 -95 -23q-84 0 -135.5 48t-51.5 144v329h51v-314q0 -81 37.5 -121t106.5 -40q44 0 80 21t56.5 58t20.5 82v314h51v-442q0 -33 27 -33q23 0 50 16v-43q-28 -19 -64 -19q-34 0 -49 25.5t-15 60.5
q-26 -40 -70 -63z" />
    <glyph glyph-name="yacute" unicode="&#xfd;" horiz-adv-x="512" 
d="M317 720h65v-3l-111 -142h-50zM254 -23q-22 -58 -38.5 -90t-42 -52.5t-63.5 -20.5q-32 0 -63 14v46q33 -14 54 -14q26 0 44 15t28 34t22 50l20 49l-203 503h55l174 -435h4l175 435h50l-202 -498q-10 -24 -14 -36z" />
    <glyph glyph-name="thorn" unicode="&#xfe;" horiz-adv-x="583" 
d="M133 720v-279q56 80 164 80q90 0 146.5 -67.5t56.5 -202.5v-11q0 -79 -27 -135.5t-73 -85.5t-103 -29q-53 0 -95.5 21.5t-67.5 59.5v-252h-51v901h50zM177.5 87.5q44.5 -51.5 114.5 -51.5q69 0 113 52t44 154v11q0 117 -43 169.5t-114 52.5q-72 0 -115.5 -51.5
t-43.5 -169.5v-12q0 -103 44.5 -154.5z" />
    <glyph glyph-name="ydieresis" unicode="&#xff;" horiz-adv-x="512" 
d="M189 720v-69h-65v69h65zM365 720v-69h-65v69h65zM254 -23q-22 -58 -38.5 -90t-42 -52.5t-63.5 -20.5q-32 0 -63 14v46q33 -14 54 -14q26 0 44 15t28 34t22 50l20 49l-203 503h55l174 -435h4l175 435h50l-202 -498q-10 -24 -14 -36z" />
    <glyph glyph-name="Amacron" unicode="&#x100;" horiz-adv-x="652" 
d="M130 170l-70 -170h-56l284 686h50l284 -686h-59l-71 170h-362zM472 219l-159 393h-4l-159 -393h322zM154 911h318v-44h-318v44z" />
    <glyph glyph-name="amacron" unicode="&#x101;" horiz-adv-x="585" 
d="M474 36q23 0 50 16v-43q-28 -19 -64 -19t-50 26.5t-14 72.5q-31 -51 -77.5 -75t-109.5 -24q-71 0 -116 32.5t-45 110.5q0 71 42.5 106.5t115 46t190.5 10.5v64q0 64 -30.5 89.5t-102.5 25.5q-66 0 -106 -25.5t-40 -78.5v-16h-49q-2 16 -2 26q0 65 55.5 102.5t141.5 37.5
q93 0 138.5 -37t45.5 -114v-301q0 -33 27 -33zM229.5 243q-60.5 -7 -95.5 -32.5t-35 -78.5q0 -50 28.5 -73t91.5 -23q45 0 85.5 20t66 60.5t25.5 99.5v34q-106 0 -166.5 -7zM104 736h318v-44h-318v44z" />
    <glyph glyph-name="Abreve" unicode="&#x102;" horiz-adv-x="652" 
d="M130 170l-70 -170h-56l284 686h50l284 -686h-59l-71 170h-362zM472 219l-159 393h-4l-159 -393h322zM217 806.5q-44 18.5 -70.5 47.5t-26.5 58h56q12 -36 48.5 -55.5t87.5 -19.5t88 19.5t49 55.5h56q0 -29 -26.5 -58t-71 -47.5t-95.5 -18.5t-95 18.5z" />
    <glyph glyph-name="abreve" unicode="&#x103;" horiz-adv-x="585" 
d="M474 36q23 0 50 16v-43q-28 -19 -64 -19t-50 26.5t-14 72.5q-31 -51 -77.5 -75t-109.5 -24q-71 0 -116 32.5t-45 110.5q0 71 42.5 106.5t115 46t190.5 10.5v64q0 64 -30.5 89.5t-102.5 25.5q-66 0 -106 -25.5t-40 -78.5v-16h-49q-2 16 -2 26q0 65 55.5 102.5t141.5 37.5
q93 0 138.5 -37t45.5 -114v-301q0 -33 27 -33zM229.5 243q-60.5 -7 -95.5 -32.5t-35 -78.5q0 -50 28.5 -73t91.5 -23q45 0 85.5 20t66 60.5t25.5 99.5v34q-106 0 -166.5 -7zM167 631.5q-44 18.5 -70.5 47.5t-26.5 58h56q12 -36 48.5 -55.5t87.5 -19.5t88 19.5t49 55.5h56
q0 -29 -26.5 -58t-71 -47.5t-95.5 -18.5t-95 18.5z" />
    <glyph glyph-name="Aogonek" unicode="&#x104;" horiz-adv-x="652" 
d="M130 170l-70 -170h-56l284 686h50l284 -686h-59l-71 170h-362zM472 219l-159 393h-4l-159 -393h322zM608 -143q-40 0 -68.5 17t-28.5 55q0 21 15 38t39 33h50l-3 -2q-21 -15 -32.5 -27.5t-11.5 -30.5q0 -21 13 -30.5t31 -9.5q25 0 67 14l13 -33q-39 -24 -84 -24z" />
    <glyph glyph-name="aogonek" unicode="&#x105;" horiz-adv-x="585" 
d="M601 -119q-39 -24 -84 -24q-40 0 -68.5 17t-28.5 55q0 31 40 61q-36 0 -50 26.5t-14 72.5q-31 -51 -77.5 -75t-109.5 -24q-71 0 -116 32.5t-45 110.5q0 71 42.5 106.5t115 46t190.5 10.5v64q0 64 -30.5 89.5t-102.5 25.5q-66 0 -106 -25.5t-40 -78.5v-16h-49q-2 16 -2 26
q0 65 55.5 102.5t141.5 37.5q93 0 138.5 -37t45.5 -114v-301q0 -33 27 -33q23 0 50 16v-43l-16 -9h16l-3 -2q-21 -15 -32.5 -27.5t-11.5 -30.5q0 -21 13 -30.5t31 -9.5q25 0 67 14zM396 250q-106 0 -166.5 -7t-95.5 -32.5t-35 -78.5q0 -50 28.5 -73t91.5 -23q45 0 85.5 20
t66 60.5t25.5 99.5v34z" />
    <glyph glyph-name="Cacute" unicode="&#x106;" horiz-adv-x="663" 
d="M503 50q-71 -60 -183 -60q-80 0 -136.5 29t-89 104t-32.5 207v26q0 132 32.5 207t89 104t136.5 29q113 0 183.5 -59t70.5 -203h-53q0 119 -55 166.5t-146 47.5q-98 0 -151 -60.5t-53 -219.5v-50q0 -159 53 -219.5t151 -60.5q201 0 201 213h53q0 -141 -71 -201zM397 895
h65v-3l-111 -142h-50z" />
    <glyph glyph-name="cacute" unicode="&#x107;" horiz-adv-x="544" 
d="M438 85.5q-26 -46.5 -71 -71t-102 -24.5q-63 0 -111.5 30.5t-75.5 88.5t-27 139v15q0 81 26.5 139t75 88.5t111.5 30.5q57 0 102.5 -24.5t71.5 -71t26 -111.5h-50q0 78 -42.5 119.5t-107.5 41.5q-72 0 -117 -53t-45 -153v-27q0 -100 45.5 -153t117.5 -53q65 0 107 41
t42 120h50q0 -65 -26 -111.5zM327 720h65v-3l-111 -142h-50z" />
    <glyph glyph-name="Ccaron" unicode="&#x10c;" horiz-adv-x="663" 
d="M503 50q-71 -60 -183 -60q-80 0 -136.5 29t-89 104t-32.5 207v26q0 132 32.5 207t89 104t136.5 29q113 0 183.5 -59t70.5 -203h-53q0 119 -55 166.5t-146 47.5q-98 0 -151 -60.5t-53 -219.5v-50q0 -159 53 -219.5t151 -60.5q201 0 201 213h53q0 -141 -71 -201zM229 895
l103 -97l103 97h60l-134 -145h-58l-134 145h60z" />
    <glyph glyph-name="ccaron" unicode="&#x10d;" horiz-adv-x="544" 
d="M438 85.5q-26 -46.5 -71 -71t-102 -24.5q-63 0 -111.5 30.5t-75.5 88.5t-27 139v15q0 81 26.5 139t75 88.5t111.5 30.5q57 0 102.5 -24.5t71.5 -71t26 -111.5h-50q0 78 -42.5 119.5t-107.5 41.5q-72 0 -117 -53t-45 -153v-27q0 -100 45.5 -153t117.5 -53q65 0 107 41
t42 120h50q0 -65 -26 -111.5zM159 720l103 -97l103 97h60l-134 -145h-58l-134 145h60z" />
    <glyph glyph-name="Dcaron" unicode="&#x10e;" horiz-adv-x="675" 
d="M92 686h220q123 0 194.5 -74.5t71.5 -255.5v-25q0 -180 -72 -255.5t-194 -75.5h-220v686zM467 109q57 61 57 213v43q0 273 -212 273h-166v-590h166q98 0 155 61zM185 895l103 -97l103 97h60l-134 -145h-58l-134 145h60z" />
    <glyph glyph-name="dcaron" unicode="&#x10f;" horiz-adv-x="583" 
d="M255 -10q-90 0 -146.5 67.5t-56.5 202.5v11q0 79 27 135.5t73 85.5t103 29q53 0 95.5 -21.5t67.5 -59.5v280h51v-720h-34l-11 77q-56 -87 -169 -87zM374.5 423.5q-44.5 51.5 -114.5 51.5q-69 0 -113 -52t-44 -154v-11q0 -117 43 -169.5t114 -52.5q72 0 115.5 51.5
t43.5 169.5v12q0 103 -44.5 154.5zM545 566.5q8 34.5 11 50.5h-24v69h65v-58l-30 -112h-34q4 16 12 50.5z" />
    <glyph glyph-name="Dcroat" unicode="&#x110;" horiz-adv-x="681" 
d="M105 367v319h220q123 0 194.5 -74.5t71.5 -255.5v-25q0 -180 -72 -255.5t-194 -75.5h-220v319h-100v48h100zM480 109q57 61 57 213v43q0 273 -212 273h-166v-271h172v-48h-172v-271h166q98 0 155 61z" />
    <glyph glyph-name="dcroat" unicode="&#x111;" horiz-adv-x="583" 
d="M559 623h-90v-623h-34l-11 77q-56 -87 -169 -87q-90 0 -146.5 67.5t-56.5 202.5v11q0 79 27 135.5t73 85.5t103 29q53 0 95.5 -21.5t67.5 -59.5v183h-177v43h177v54h51v-54h90v-43zM419 269q0 103 -44.5 154.5t-114.5 51.5q-69 0 -113 -52t-44 -154v-11q0 -117 43 -169.5
t114 -52.5q72 0 115.5 51.5t43.5 169.5v12z" />
    <glyph glyph-name="Emacron" unicode="&#x112;" horiz-adv-x="593" 
d="M92 686h424l-10 -48h-360v-264h319v-48h-319v-278h369l11 -48h-434v686zM138 911h318v-44h-318v44z" />
    <glyph glyph-name="emacron" unicode="&#x113;" horiz-adv-x="556" 
d="M437.5 82q-26.5 -45 -71.5 -68.5t-101 -23.5q-63 0 -111.5 30.5t-75.5 88.5t-27 139v15q0 81 26.5 139t75 88.5t111.5 30.5q57 0 102.5 -24.5t71.5 -71t26 -111.5v-64h-362v-8q0 -100 45.5 -153t117.5 -53q64 0 106.5 39t42.5 114h50q0 -62 -26.5 -107zM153 429
q-44 -46 -50 -133h311v18q0 78 -42.5 119.5t-107.5 41.5q-67 0 -111 -46zM119 736h318v-44h-318v44z" />
    <glyph glyph-name="Edotaccent" unicode="&#x116;" horiz-adv-x="593" 
d="M92 686h424l-10 -48h-360v-264h319v-48h-319v-278h369l11 -48h-434v686zM343.5 798q-19.5 -19 -47.5 -19q-26 0 -45.5 19.5t-19.5 46.5q0 28 19 47t47 19t47 -19.5t19 -46.5q0 -28 -19.5 -47z" />
    <glyph glyph-name="edotaccent" unicode="&#x117;" horiz-adv-x="556" 
d="M437.5 82q-26.5 -45 -71.5 -68.5t-101 -23.5q-63 0 -111.5 30.5t-75.5 88.5t-27 139v15q0 81 26.5 139t75 88.5t111.5 30.5q57 0 102.5 -24.5t71.5 -71t26 -111.5v-64h-362v-8q0 -100 45.5 -153t117.5 -53q64 0 106.5 39t42.5 114h50q0 -62 -26.5 -107zM153 429
q-44 -46 -50 -133h311v18q0 78 -42.5 119.5t-107.5 41.5q-67 0 -111 -46zM324.5 623q-19.5 -19 -47.5 -19q-26 0 -45.5 19.5t-19.5 46.5q0 28 19 47t47 19t47 -19.5t19 -46.5q0 -28 -19.5 -47z" />
    <glyph glyph-name="Eogonek" unicode="&#x118;" horiz-adv-x="593" 
d="M92 686h424l-10 -48h-360v-264h319v-48h-319v-278h369l11 -48h-434v686zM505 -143q-40 0 -68.5 17t-28.5 55q0 21 15 38t39 33h50l-3 -2q-21 -15 -32.5 -27.5t-11.5 -30.5q0 -21 13 -30.5t31 -9.5q25 0 67 14l13 -33q-39 -24 -84 -24z" />
    <glyph glyph-name="eogonek" unicode="&#x119;" horiz-adv-x="556" 
d="M102 250v-8q0 -100 45.5 -153t117.5 -53q64 0 106.5 39t42.5 114h50q0 -73 -35.5 -121.5t-95.5 -67.5h5l-3 -2q-21 -15 -32.5 -27.5t-11.5 -30.5q0 -21 13 -30.5t31 -9.5q25 0 67 14l13 -33q-39 -24 -84 -24q-40 0 -68.5 17t-28.5 55q0 31 40 61h-9q-63 0 -111.5 30.5
t-75.5 88.5t-27 139v15q0 81 26.5 139t75 88.5t111.5 30.5q57 0 102.5 -24.5t71.5 -71t26 -111.5v-64h-362zM153 429q-44 -46 -50 -133h311v18q0 78 -42.5 119.5t-107.5 41.5q-67 0 -111 -46z" />
    <glyph glyph-name="Ecaron" unicode="&#x11a;" horiz-adv-x="593" 
d="M92 686h424l-10 -48h-360v-264h319v-48h-319v-278h369l11 -48h-434v686zM194 895l103 -97l103 97h60l-134 -145h-58l-134 145h60z" />
    <glyph glyph-name="ecaron" unicode="&#x11b;" horiz-adv-x="556" 
d="M437.5 82q-26.5 -45 -71.5 -68.5t-101 -23.5q-63 0 -111.5 30.5t-75.5 88.5t-27 139v15q0 81 26.5 139t75 88.5t111.5 30.5q57 0 102.5 -24.5t71.5 -71t26 -111.5v-64h-362v-8q0 -100 45.5 -153t117.5 -53q64 0 106.5 39t42.5 114h50q0 -62 -26.5 -107zM153 429
q-44 -46 -50 -133h311v18q0 78 -42.5 119.5t-107.5 41.5q-67 0 -111 -46zM175 720l103 -97l103 97h60l-134 -145h-58l-134 145h60z" />
    <glyph glyph-name="Gbreve" unicode="&#x11e;" horiz-adv-x="677" 
d="M292 303v47h282v-231q0 -44 2.5 -77t3.5 -42h-37q-2 6 -6.5 29.5t-9.5 62.5q-30 -53 -84.5 -77.5t-122.5 -24.5q-80 0 -136.5 29t-89 104t-32.5 207v26q0 132 32.5 207t89 104t136.5 29q112 0 183 -56t71 -191h-53q0 110 -56 154.5t-145 44.5q-98 0 -151 -60.5
t-53 -219.5v-50q0 -159 53 -219.5t151 -60.5q204 0 204 213v52h-232zM243 806.5q-44 18.5 -70.5 47.5t-26.5 58h56q12 -36 48.5 -55.5t87.5 -19.5t88 19.5t49 55.5h56q0 -29 -26.5 -58t-71 -47.5t-95.5 -18.5t-95 18.5z" />
    <glyph glyph-name="gbreve" unicode="&#x11f;" horiz-adv-x="568" 
d="M489 33q33 -34 33 -85q0 -38 -18.5 -69t-51 -49t-73.5 -18h-217q-35 0 -64 18t-45.5 47t-16.5 62q0 37 20 69.5t54 46.5q-45 27 -45 80q0 35 21.5 60.5t59.5 40.5q-32 23 -50 55t-18 69q0 71 49 116t146 45q65 0 111 -22q37 10 61 37t29 67h48q0 -44 -27.5 -82t-71.5 -44
l-1 -4q22 -19 34 -48.5t12 -64.5q0 -71 -49 -115.5t-146 -44.5h-82q-32 0 -53.5 -18t-21.5 -49t21 -48.5t54 -17.5h213q52 0 85 -34zM378.5 442q-38.5 33 -105.5 33t-105.5 -33t-38.5 -82t38.5 -82t105.5 -33t105.5 33t38.5 82t-38.5 82zM444.5 -116.5q26.5 25.5 26.5 61.5
q0 29 -21 51t-50 22h-234q-33 0 -56.5 -23.5t-23.5 -56.5t23.5 -56.5t56.5 -23.5h216q36 0 62.5 25.5zM188 631.5q-44 18.5 -70.5 47.5t-26.5 58h56q12 -36 48.5 -55.5t87.5 -19.5t88 19.5t49 55.5h56q0 -29 -26.5 -58t-71 -47.5t-95.5 -18.5t-95 18.5z" />
    <glyph glyph-name="Gcommaaccent" unicode="&#x122;" horiz-adv-x="677" 
d="M292 303v47h282v-231q0 -44 2.5 -77t3.5 -42h-37q-2 6 -6.5 29.5t-9.5 62.5q-30 -53 -84.5 -77.5t-122.5 -24.5q-80 0 -136.5 29t-89 104t-32.5 207v26q0 132 32.5 207t89 104t136.5 29q112 0 183 -56t71 -191h-53q0 110 -56 154.5t-145 44.5q-98 0 -151 -60.5
t-53 -219.5v-50q0 -159 53 -219.5t151 -60.5q204 0 204 213v52h-232zM318 -199.5q8 34.5 11 50.5h-24v69h65v-58l-30 -112h-34q4 16 12 50.5z" />
    <glyph glyph-name="gcommaaccent" unicode="&#x123;" horiz-adv-x="568" 
d="M305 710.5q-8 -34.5 -11 -50.5h24v-69h-65v58l30 112h34q-4 -16 -12 -50.5zM489 33q33 -34 33 -85q0 -38 -18.5 -69t-51 -49t-73.5 -18h-217q-35 0 -64 18t-45.5 47t-16.5 62q0 37 20 69.5t54 46.5q-45 27 -45 80q0 35 21.5 60.5t59.5 40.5q-32 23 -50 55t-18 69
q0 71 49 116t146 45q65 0 111 -22q37 10 61 37t29 67h48q0 -44 -27.5 -82t-71.5 -44l-1 -4q22 -19 34 -48.5t12 -64.5q0 -71 -49 -115.5t-146 -44.5h-82q-32 0 -53.5 -18t-21.5 -49t21 -48.5t54 -17.5h213q52 0 85 -34zM378.5 442q-38.5 33 -105.5 33t-105.5 -33t-38.5 -82
t38.5 -82t105.5 -33t105.5 33t38.5 82t-38.5 82zM444.5 -116.5q26.5 25.5 26.5 61.5q0 29 -21 51t-50 22h-234q-33 0 -56.5 -23.5t-23.5 -56.5t23.5 -56.5t56.5 -23.5h216q36 0 62.5 25.5z" />
    <glyph glyph-name="Imacron" unicode="&#x12a;" horiz-adv-x="364" 
d="M265 686v-49h-79v-588h79v-49h-212v49h79v588h-79v49h212zM0 911h318v-44h-318v44z" />
    <glyph glyph-name="imacron" unicode="&#x12b;" horiz-adv-x="260" 
d="M83 511h51v-511h-51v511zM-50 736h318v-44h-318v44z" />
    <glyph glyph-name="Iogonek" unicode="&#x12e;" horiz-adv-x="364" 
d="M265 686v-49h-79v-588h79v-49h-212v49h79v588h-79v49h212zM239 -143q-40 0 -68.5 17t-28.5 55q0 21 15 38t39 33h50l-3 -2q-21 -15 -32.5 -27.5t-11.5 -30.5q0 -21 13 -30.5t31 -9.5q25 0 67 14l13 -33q-39 -24 -84 -24z" />
    <glyph glyph-name="iogonek" unicode="&#x12f;" horiz-adv-x="260" 
d="M140 666h-59v54h59v-54zM204 -119q-39 -24 -84 -24q-40 0 -68.5 17t-28.5 55q0 21 15 38t39 33h6v511h51v-511h-7l-3 -2q-21 -15 -32.5 -27.5t-11.5 -30.5q0 -21 13 -30.5t31 -9.5q25 0 67 14z" />
    <glyph glyph-name="Idotaccent" unicode="&#x130;" horiz-adv-x="364" 
d="M265 686v-49h-79v-588h79v-49h-212v49h79v588h-79v49h212zM205.5 798q-19.5 -19 -47.5 -19q-26 0 -45.5 19.5t-19.5 46.5q0 28 19 47t47 19t47 -19.5t19 -46.5q0 -28 -19.5 -47z" />
    <glyph glyph-name="dotlessi" unicode="&#x131;" horiz-adv-x="260" 
d="M83 511h51v-511h-51v511z" />
    <glyph glyph-name="Kcommaaccent" unicode="&#x136;" horiz-adv-x="623" 
d="M146 686v-407l363 407h64l-267 -299l275 -387h-68l-244 346l-123 -138v-208h-54v686h54zM291 -199.5q8 34.5 11 50.5h-24v69h65v-58l-30 -112h-34q4 16 12 50.5z" />
    <glyph glyph-name="kcommaaccent" unicode="&#x137;" horiz-adv-x="535" 
d="M134 127v-127h-51v720h51v-534l290 325h63l-215 -241l232 -270h-66l-200 232zM247 -199.5q8 34.5 11 50.5h-24v69h65v-58l-30 -112h-34q4 16 12 50.5z" />
    <glyph glyph-name="Lacute" unicode="&#x139;" horiz-adv-x="536" 
d="M92 686h54v-638h340l12 -48h-406v686zM184 895h65v-3l-111 -142h-50z" />
    <glyph glyph-name="lacute" unicode="&#x13a;" horiz-adv-x="268" 
d="M87 720h51v-720h-51v720zM178 895h65v-3l-111 -142h-50z" />
    <glyph glyph-name="Lcommaaccent" unicode="&#x13b;" horiz-adv-x="536" 
d="M92 686h54v-638h340l12 -48h-406v686zM247 -199.5q8 34.5 11 50.5h-24v69h65v-58l-30 -112h-34q4 16 12 50.5z" />
    <glyph glyph-name="lcommaaccent" unicode="&#x13c;" horiz-adv-x="268" 
d="M87 720h51v-720h-51v720zM92 -199.5q8 34.5 11 50.5h-24v69h65v-58l-30 -112h-34q4 16 12 50.5z" />
    <glyph glyph-name="Lcaron" unicode="&#x13d;" horiz-adv-x="536" 
d="M92 686h54v-638h340l12 -48h-406v686zM498 566.5q8 34.5 11 50.5h-24v69h65v-58l-30 -112h-34q4 16 12 50.5z" />
    <glyph glyph-name="lcaron" unicode="&#x13e;" horiz-adv-x="268" 
d="M87 720h51v-720h-51v720zM230 566.5q8 34.5 11 50.5h-24v69h65v-58l-30 -112h-34q4 16 12 50.5z" />
    <glyph glyph-name="Lslash" unicode="&#x141;" horiz-adv-x="539" 
d="M161 358v-310h340l12 -48h-406v331l-74 -37v44l74 37v311h54v-284l152 77v-44z" />
    <glyph glyph-name="lslash" unicode="&#x142;" horiz-adv-x="298" 
d="M114 338l-94 -47v44l94 47v338h51v-313l94 48v-44l-94 -48v-363h-51v338z" />
    <glyph glyph-name="Nacute" unicode="&#x143;" horiz-adv-x="694" 
d="M143 583h-3v-583h-48v686h46l382 -583h3v583h48v-686h-48zM412 895h65v-3l-111 -142h-50z" />
    <glyph glyph-name="nacute" unicode="&#x144;" horiz-adv-x="593" 
d="M435 314q0 81 -37.5 121t-106.5 40q-44 0 -80 -21t-56.5 -58t-20.5 -82v-314h-51v511h34l11 -76q26 40 71.5 63t96.5 23q84 0 136.5 -48.5t52.5 -143.5v-329h-50v314zM362 720h65v-3l-111 -142h-50z" />
    <glyph glyph-name="Ncommaaccent" unicode="&#x145;" horiz-adv-x="694" 
d="M143 583h-3v-583h-48v686h46l382 -583h3v583h48v-686h-48zM326 -199.5q8 34.5 11 50.5h-24v69h65v-58l-30 -112h-34q4 16 12 50.5z" />
    <glyph glyph-name="ncommaaccent" unicode="&#x146;" horiz-adv-x="593" 
d="M435 314q0 81 -37.5 121t-106.5 40q-44 0 -80 -21t-56.5 -58t-20.5 -82v-314h-51v511h34l11 -76q26 40 71.5 63t96.5 23q84 0 136.5 -48.5t52.5 -143.5v-329h-50v314zM276 -199.5q8 34.5 11 50.5h-24v69h65v-58l-30 -112h-34q4 16 12 50.5z" />
    <glyph glyph-name="Ncaron" unicode="&#x147;" horiz-adv-x="694" 
d="M143 583h-3v-583h-48v686h46l382 -583h3v583h48v-686h-48zM244 895l103 -97l103 97h60l-134 -145h-58l-134 145h60z" />
    <glyph glyph-name="ncaron" unicode="&#x148;" horiz-adv-x="593" 
d="M435 314q0 81 -37.5 121t-106.5 40q-44 0 -80 -21t-56.5 -58t-20.5 -82v-314h-51v511h34l11 -76q26 40 71.5 63t96.5 23q84 0 136.5 -48.5t52.5 -143.5v-329h-50v314zM194 720l103 -97l103 97h60l-134 -145h-58l-134 145h60z" />
    <glyph glyph-name="Omacron" unicode="&#x14c;" horiz-adv-x="690" 
d="M131.5 64.5q-70.5 74.5 -70.5 265.5v26q0 191 70.5 265.5t195.5 74.5t195.5 -74.5t70.5 -265.5v-26q0 -191 -70.5 -265.5t-195.5 -74.5t-195.5 74.5zM482.5 99q56.5 61 56.5 219v50q0 158 -56.5 219t-155.5 61t-155.5 -61t-56.5 -219v-50q0 -158 56.5 -219t155.5 -61
t155.5 61zM166 911h318v-44h-318v44z" />
    <glyph glyph-name="omacron" unicode="&#x14d;" horiz-adv-x="574" 
d="M156 20.5q-49 30.5 -76.5 88.5t-27.5 139v15q0 81 27.5 139t76.5 88.5t112 30.5t112 -30.5t76.5 -88.5t27.5 -139v-15q0 -81 -27.5 -139t-76.5 -88.5t-112 -30.5t-112 30.5zM387 89q46 53 46 153v27q0 100 -46 153t-119 53t-119 -53t-46 -153v-27q0 -100 46 -153t119 -53
t119 53zM108 736h318v-44h-318v44z" />
    <glyph glyph-name="Ohungarumlaut" unicode="&#x150;" horiz-adv-x="690" 
d="M131.5 64.5q-70.5 74.5 -70.5 265.5v26q0 191 70.5 265.5t195.5 74.5t195.5 -74.5t70.5 -265.5v-26q0 -191 -70.5 -265.5t-195.5 -74.5t-195.5 74.5zM482.5 99q56.5 61 56.5 219v50q0 158 -56.5 219t-155.5 61t-155.5 -61t-56.5 -219v-50q0 -158 56.5 -219t155.5 -61
t155.5 61zM338 895h64l1 -3l-111 -142h-50zM463 895h64l1 -3l-111 -142h-50z" />
    <glyph glyph-name="ohungarumlaut" unicode="&#x151;" horiz-adv-x="574" 
d="M156 20.5q-49 30.5 -76.5 88.5t-27.5 139v15q0 81 27.5 139t76.5 88.5t112 30.5t112 -30.5t76.5 -88.5t27.5 -139v-15q0 -81 -27.5 -139t-76.5 -88.5t-112 -30.5t-112 30.5zM387 89q46 53 46 153v27q0 100 -46 153t-119 53t-119 -53t-46 -153v-27q0 -100 46 -153t119 -53
t119 53zM280 720h64l1 -3l-111 -142h-50zM405 720h64l1 -3l-111 -142h-50z" />
    <glyph glyph-name="OE" unicode="&#x152;" horiz-adv-x="1032" 
d="M539 87q-35 -53 -88.5 -75t-123.5 -22q-125 0 -195.5 74.5t-70.5 265.5v26q0 191 70.5 265.5t195.5 74.5q70 0 123.5 -22.5t88.5 -75.5v88h424l-10 -48h-360v-264h319v-48h-319v-278h369l11 -48h-434v87zM482.5 99q56.5 61 56.5 219v50q0 158 -56.5 219t-155.5 61
t-155.5 -61t-56.5 -219v-50q0 -158 56.5 -219t155.5 -61t155.5 61z" />
    <glyph glyph-name="oe" unicode="&#x153;" horiz-adv-x="933" 
d="M819.5 82q-26.5 -45 -71.5 -68.5t-101 -23.5q-65 0 -114 31.5t-75 90.5q-27 -59 -76.5 -90.5t-113.5 -31.5q-63 0 -112 30.5t-76.5 88.5t-27.5 139v15q0 81 27.5 139t76.5 88.5t112 30.5q64 0 113.5 -31.5t76.5 -91.5q25 60 74 91.5t114 31.5q57 0 102.5 -24.5t71.5 -71
t26 -111.5v-64h-362v-14q1 -98 46.5 -149t116.5 -51q64 0 106.5 39t42.5 114h50q0 -62 -26.5 -107zM387 89q46 53 46 153v27q0 100 -46 153t-119 53t-119 -53t-46 -153v-27q0 -100 46 -153t119 -53t119 53zM535 429q-44 -46 -50 -133h311v18q0 78 -42.5 119.5t-107.5 41.5
q-67 0 -111 -46z" />
    <glyph glyph-name="Racute" unicode="&#x154;" horiz-adv-x="670" 
d="M590 -1.5q-7 -1.5 -16 -1.5q-31 0 -54.5 27.5t-23.5 102.5q0 120 -42 159.5t-87 39.5h-221v-326h-54v686h279q49 0 92.5 -21.5t70.5 -60t27 -88.5q0 -36 -16 -71t-44.5 -60t-62.5 -31v-5q0 5 30.5 -12t55 -60.5t24.5 -123.5q0 -57 7 -83.5t14.5 -33t29.5 -16.5v-19
q-2 -1 -9 -2.5zM441 392q31 18 49 48.5t18 66.5t-18 66t-48.5 47.5t-67.5 17.5h-228v-264h228q36 0 67 18zM370 895h65v-3l-111 -142h-50z" />
    <glyph glyph-name="racute" unicode="&#x155;" horiz-adv-x="490" 
d="M388 344q0 50 -29 90.5t-96 40.5q-46 0 -75 -24.5t-41.5 -59.5t-12.5 -67v-324h-51v511h34l11 -76q0 4 15.5 26t48 41t81.5 19q79 0 121.5 -48.5t42.5 -120.5q0 -10 -1 -16t-1 -8h-47v16zM174 720h65v-3l-111 -142h-50z" />
    <glyph glyph-name="Rcommaaccent" unicode="&#x156;" horiz-adv-x="670" 
d="M590 -1.5q-7 -1.5 -16 -1.5q-31 0 -54.5 27.5t-23.5 102.5q0 120 -42 159.5t-87 39.5h-221v-326h-54v686h279q49 0 92.5 -21.5t70.5 -60t27 -88.5q0 -36 -16 -71t-44.5 -60t-62.5 -31v-5q0 5 30.5 -12t55 -60.5t24.5 -123.5q0 -57 7 -83.5t14.5 -33t29.5 -16.5v-19
q-2 -1 -9 -2.5zM441 392q31 18 49 48.5t18 66.5t-18 66t-48.5 47.5t-67.5 17.5h-228v-264h228q36 0 67 18zM314 -199.5q8 34.5 11 50.5h-24v69h65v-58l-30 -112h-34q4 16 12 50.5z" />
    <glyph glyph-name="rcommaaccent" unicode="&#x157;" horiz-adv-x="490" 
d="M388 344q0 50 -29 90.5t-96 40.5q-46 0 -75 -24.5t-41.5 -59.5t-12.5 -67v-324h-51v511h34l11 -76q0 4 15.5 26t48 41t81.5 19q79 0 121.5 -48.5t42.5 -120.5q0 -10 -1 -16t-1 -8h-47v16zM88 -199.5q8 34.5 11 50.5h-24v69h65v-58l-30 -112h-34q4 16 12 50.5z" />
    <glyph glyph-name="Rcaron" unicode="&#x158;" horiz-adv-x="670" 
d="M590 -1.5q-7 -1.5 -16 -1.5q-31 0 -54.5 27.5t-23.5 102.5q0 120 -42 159.5t-87 39.5h-221v-326h-54v686h279q49 0 92.5 -21.5t70.5 -60t27 -88.5q0 -36 -16 -71t-44.5 -60t-62.5 -31v-5q0 5 30.5 -12t55 -60.5t24.5 -123.5q0 -57 7 -83.5t14.5 -33t29.5 -16.5v-19
q-2 -1 -9 -2.5zM441 392q31 18 49 48.5t18 66.5t-18 66t-48.5 47.5t-67.5 17.5h-228v-264h228q36 0 67 18zM202 895l103 -97l103 97h60l-134 -145h-58l-134 145h60z" />
    <glyph glyph-name="rcaron" unicode="&#x159;" horiz-adv-x="490" 
d="M388 344q0 50 -29 90.5t-96 40.5q-46 0 -75 -24.5t-41.5 -59.5t-12.5 -67v-324h-51v511h34l11 -76q0 4 15.5 26t48 41t81.5 19q79 0 121.5 -48.5t42.5 -120.5q0 -10 -1 -16t-1 -8h-47v16zM6 720l103 -97l103 97h60l-134 -145h-58l-134 145h60z" />
    <glyph glyph-name="Sacute" unicode="&#x15a;" horiz-adv-x="627" 
d="M473 525q0 60 -49.5 91.5t-126.5 31.5q-79 0 -127 -29.5t-48 -93.5q0 -42 25 -67.5t62 -40t100 -30.5q76 -20 122.5 -38.5t79 -57t32.5 -103.5q0 -103 -67.5 -150.5t-175.5 -47.5q-112 0 -180 46.5t-68 150.5l1 18h51l-1 -27q0 -73 53 -106.5t140 -33.5q194 0 194 147
q0 47 -26.5 76t-65 44t-105.5 33q-74 20 -118 38t-75 54.5t-31 97.5q0 84 64.5 126t162.5 42q101 0 164 -44t63 -136v-13h-50v22zM359 895h65v-3l-111 -142h-50z" />
    <glyph glyph-name="sacute" unicode="&#x15b;" horiz-adv-x="534" 
d="M95 143q0 -51 44.5 -79t121.5 -28q69 0 107 27.5t38 72.5q0 35 -21.5 55t-53 30.5t-84.5 20.5q-61 12 -98 24.5t-63 39.5t-26 75q0 62 50 101t148 39q64 0 106 -21t61.5 -52.5t19.5 -64.5l-1 -14h-50v13q0 32 -28.5 62.5t-116.5 30.5q-85 0 -111.5 -29t-26.5 -63
q0 -29 20 -47t50 -27.5t83 -20.5q61 -13 100 -26t66 -41t27 -75q0 -82 -56.5 -119t-152.5 -37q-73 0 -118.5 23t-65 56t-19.5 63q0 12 0.5 18t0.5 7h50q-1 -5 -1 -14zM312 720h65v-3l-111 -142h-50z" />
    <glyph glyph-name="Scedilla" unicode="&#x15e;" horiz-adv-x="627" 
d="M473 525q0 60 -49.5 91.5t-126.5 31.5q-79 0 -127 -29.5t-48 -93.5q0 -42 25 -67.5t62 -40t100 -30.5q76 -20 122.5 -38.5t79 -57t32.5 -103.5q0 -103 -67.5 -150.5t-175.5 -47.5q-112 0 -180 46.5t-68 150.5l1 18h51l-1 -27q0 -73 53 -106.5t140 -33.5q194 0 194 147
q0 47 -26.5 76t-65 44t-105.5 33q-74 20 -118 38t-75 54.5t-31 97.5q0 84 64.5 126t162.5 42q101 0 164 -44t63 -136v-13h-50v22zM285 -151q33 0 54.5 12.5t21.5 41.5q0 22 -17.5 34t-40.5 12h-22v34h25q46 0 76 -20.5t30 -68.5q0 -49 -36.5 -70t-81.5 -21q-43 0 -78 13v46
q24 -13 69 -13z" />
    <glyph glyph-name="scedilla" unicode="&#x15f;" horiz-adv-x="534" 
d="M95 143q0 -51 44.5 -79t121.5 -28q69 0 107 27.5t38 72.5q0 35 -21.5 55t-53 30.5t-84.5 20.5q-61 12 -98 24.5t-63 39.5t-26 75q0 62 50 101t148 39q64 0 106 -21t61.5 -52.5t19.5 -64.5l-1 -14h-50v13q0 32 -28.5 62.5t-116.5 30.5q-85 0 -111.5 -29t-26.5 -63
q0 -29 20 -47t50 -27.5t83 -20.5q61 -13 100 -26t66 -41t27 -75q0 -82 -56.5 -119t-152.5 -37q-73 0 -118.5 23t-65 56t-19.5 63q0 12 0.5 18t0.5 7h50q-1 -5 -1 -14zM238 -151q33 0 54.5 12.5t21.5 41.5q0 22 -17.5 34t-40.5 12h-22v34h25q46 0 76 -20.5t30 -68.5
q0 -49 -36.5 -70t-81.5 -21q-43 0 -78 13v46q24 -13 69 -13z" />
    <glyph glyph-name="Scaron" unicode="&#x160;" horiz-adv-x="627" 
d="M199 895l103 -97l103 97h60l-134 -145h-58l-134 145h60zM473 525q0 60 -49.5 91.5t-126.5 31.5q-79 0 -127 -29.5t-48 -93.5q0 -42 25 -67.5t62 -40t100 -30.5q76 -20 122.5 -38.5t79 -57t32.5 -103.5q0 -103 -67.5 -150.5t-175.5 -47.5q-112 0 -180 46.5t-68 150.5l1 18
h51l-1 -27q0 -73 53 -106.5t140 -33.5q194 0 194 147q0 47 -26.5 76t-65 44t-105.5 33q-74 20 -118 38t-75 54.5t-31 97.5q0 84 64.5 126t162.5 42q101 0 164 -44t63 -136v-13h-50v22z" />
    <glyph glyph-name="scaron" unicode="&#x161;" horiz-adv-x="534" 
d="M152 720l103 -97l103 97h60l-134 -145h-58l-134 145h60zM95 143q0 -51 44.5 -79t121.5 -28q69 0 107 27.5t38 72.5q0 35 -21.5 55t-53 30.5t-84.5 20.5q-61 12 -98 24.5t-63 39.5t-26 75q0 62 50 101t148 39q64 0 106 -21t61.5 -52.5t19.5 -64.5l-1 -14h-50v13
q0 32 -28.5 62.5t-116.5 30.5q-85 0 -111.5 -29t-26.5 -63q0 -29 20 -47t50 -27.5t83 -20.5q61 -13 100 -26t66 -41t27 -75q0 -82 -56.5 -119t-152.5 -37q-73 0 -118.5 23t-65 56t-19.5 63q0 12 0.5 18t0.5 7h50q-1 -5 -1 -14z" />
    <glyph glyph-name="uni0162" unicode="&#x162;" horiz-adv-x="578" 
d="M309 0h-52v638h-232v48h516v-48h-232v-638zM254 -151q33 0 54.5 12.5t21.5 41.5q0 22 -17.5 34t-40.5 12h-22v34h25q46 0 76 -20.5t30 -68.5q0 -49 -36.5 -70t-81.5 -21q-43 0 -78 13v46q24 -13 69 -13z" />
    <glyph glyph-name="uni0163" unicode="&#x163;" horiz-adv-x="346" 
d="M237.5 -5.5q-18.5 -4.5 -36.5 -4.5q-46 0 -74 28t-28 83v364h-56v46h56l18 163h33v-163h119v-46h-119v-362q0 -40 15.5 -53.5t41.5 -13.5q11 0 30 5t32 11v-45q-13 -8 -31.5 -12.5zM144 -151q33 0 54.5 12.5t21.5 41.5q0 22 -17.5 34t-40.5 12h-22v34h25q46 0 76 -20.5
t30 -68.5q0 -49 -36.5 -70t-81.5 -21q-43 0 -78 13v46q24 -13 69 -13z" />
    <glyph glyph-name="Tcaron" unicode="&#x164;" horiz-adv-x="578" 
d="M309 0h-52v638h-232v48h516v-48h-232v-638zM180 895l103 -97l103 97h60l-134 -145h-58l-134 145h60z" />
    <glyph glyph-name="tcaron" unicode="&#x165;" horiz-adv-x="346" 
d="M237.5 -5.5q-18.5 -4.5 -36.5 -4.5q-46 0 -74 28t-28 83v364h-56v46h56l18 163h33v-163h119v-46h-119v-362q0 -40 15.5 -53.5t41.5 -13.5q11 0 30 5t32 11v-45q-13 -8 -31.5 -12.5zM315 566.5q8 34.5 11 50.5h-24v69h65v-58l-30 -112h-34q4 16 12 50.5z" />
    <glyph glyph-name="Umacron" unicode="&#x16a;" horiz-adv-x="680" 
d="M563 220q0 -69 -29.5 -121t-84 -80.5t-125.5 -28.5t-125 28.5t-83.5 80.5t-29.5 121v466h54v-464q0 -85 48.5 -134.5t135.5 -49.5t136 50.5t49 133.5v464h54v-466zM166 911h318v-44h-318v44z" />
    <glyph glyph-name="umacron" unicode="&#x16b;" horiz-adv-x="618" 
d="M360 13q-44 -23 -95 -23q-84 0 -135.5 48t-51.5 144v329h51v-314q0 -81 37.5 -121t106.5 -40q44 0 80 21t56.5 58t20.5 82v314h51v-442q0 -33 27 -33q23 0 50 16v-43q-28 -19 -64 -19q-34 0 -49 25.5t-15 60.5q-26 -40 -70 -63zM121 736h318v-44h-318v44z" />
    <glyph glyph-name="Uring" unicode="&#x16e;" horiz-adv-x="680" 
d="M563 220q0 -69 -29.5 -121t-84 -80.5t-125.5 -28.5t-125 28.5t-83.5 80.5t-29.5 121v466h54v-464q0 -85 48.5 -134.5t135.5 -49.5t136 50.5t49 133.5v464h54v-466zM396.5 749.5q-29.5 -29.5 -71.5 -29.5t-71.5 29t-29.5 71t29.5 71.5t71.5 29.5t71.5 -29.5t29.5 -71.5
q0 -41 -29.5 -70.5zM371 866q-19 19 -46 19t-46 -19t-19 -46t19 -45.5t46 -18.5t46 19t19 45q0 27 -19 46z" />
    <glyph glyph-name="uring" unicode="&#x16f;" horiz-adv-x="618" 
d="M360 13q-44 -23 -95 -23q-84 0 -135.5 48t-51.5 144v329h51v-314q0 -81 37.5 -121t106.5 -40q44 0 80 21t56.5 58t20.5 82v314h51v-442q0 -33 27 -33q23 0 50 16v-43q-28 -19 -64 -19q-34 0 -49 25.5t-15 60.5q-26 -40 -70 -63zM351.5 574.5q-29.5 -29.5 -71.5 -29.5
t-71.5 29t-29.5 71t29.5 71.5t71.5 29.5t71.5 -29.5t29.5 -71.5q0 -41 -29.5 -70.5zM326 691q-19 19 -46 19t-46 -19t-19 -46t19 -45.5t46 -18.5t46 19t19 45q0 27 -19 46z" />
    <glyph glyph-name="Uhungarumlaut" unicode="&#x170;" horiz-adv-x="680" 
d="M563 220q0 -69 -29.5 -121t-84 -80.5t-125.5 -28.5t-125 28.5t-83.5 80.5t-29.5 121v466h54v-464q0 -85 48.5 -134.5t135.5 -49.5t136 50.5t49 133.5v464h54v-466zM338 895h64l1 -3l-111 -142h-50zM463 895h64l1 -3l-111 -142h-50z" />
    <glyph glyph-name="uhungarumlaut" unicode="&#x171;" horiz-adv-x="618" 
d="M360 13q-44 -23 -95 -23q-84 0 -135.5 48t-51.5 144v329h51v-314q0 -81 37.5 -121t106.5 -40q44 0 80 21t56.5 58t20.5 82v314h51v-442q0 -33 27 -33q23 0 50 16v-43q-28 -19 -64 -19q-34 0 -49 25.5t-15 60.5q-26 -40 -70 -63zM293 720h64l1 -3l-111 -142h-50zM418 720
h64l1 -3l-111 -142h-50z" />
    <glyph glyph-name="Uogonek" unicode="&#x172;" horiz-adv-x="680" 
d="M563 686v-466q0 -84 -44 -142.5t-120 -78.5l-2 -1q-21 -15 -32.5 -27.5t-11.5 -30.5q0 -21 13 -30.5t31 -9.5q25 0 67 14l13 -33q-39 -24 -84 -24q-40 0 -68.5 17t-28.5 55q0 31 40 61h-12q-71 0 -125 28.5t-83.5 80.5t-29.5 121v466h54v-464q0 -85 48.5 -134.5
t135.5 -49.5t136 50.5t49 133.5v464h54z" />
    <glyph glyph-name="uogonek" unicode="&#x173;" horiz-adv-x="618" 
d="M631 -119q-39 -24 -84 -24q-40 0 -68.5 17t-28.5 55q0 31 40 61q-32 2 -46 27t-14 59q-26 -40 -70 -63t-95 -23q-84 0 -135.5 48t-51.5 144v329h51v-314q0 -81 37.5 -121t106.5 -40q44 0 80 21t56.5 58t20.5 82v314h51v-442q0 -33 27 -33q23 0 50 16v-43l-16 -9h12l-3 -2
q-21 -15 -32.5 -27.5t-11.5 -30.5q0 -21 13 -30.5t31 -9.5q25 0 67 14z" />
    <glyph glyph-name="Ydieresis" unicode="&#x178;" horiz-adv-x="572" 
d="M216 819v-69h-65v69h65zM392 819v-69h-65v69h65zM295 0h-54v266l-246 420h63l211 -365h3l214 365h55l-246 -420v-266z" />
    <glyph glyph-name="Zacute" unicode="&#x179;" horiz-adv-x="596" 
d="M32 25l413 613h-389v48h471v-24l-414 -614h422v-48h-503v25zM363 895h65v-3l-111 -142h-50z" />
    <glyph glyph-name="zacute" unicode="&#x17a;" horiz-adv-x="463" 
d="M36 24l277 441h-260v46h335v-24l-278 -441h286v-46h-360v24zM277 720h65v-3l-111 -142h-50z" />
    <glyph glyph-name="Zdotaccent" unicode="&#x17b;" horiz-adv-x="596" 
d="M32 25l413 613h-389v48h471v-24l-414 -614h422v-48h-503v25zM344.5 798q-19.5 -19 -47.5 -19q-26 0 -45.5 19.5t-19.5 46.5q0 28 19 47t47 19t47 -19.5t19 -46.5q0 -28 -19.5 -47z" />
    <glyph glyph-name="zdotaccent" unicode="&#x17c;" horiz-adv-x="463" 
d="M36 24l277 441h-260v46h335v-24l-278 -441h286v-46h-360v24zM258.5 623q-19.5 -19 -47.5 -19q-26 0 -45.5 19.5t-19.5 46.5q0 28 19 47t47 19t47 -19.5t19 -46.5q0 -28 -19.5 -47z" />
    <glyph glyph-name="Zcaron" unicode="&#x17d;" horiz-adv-x="596" 
d="M187 895l103 -97l103 97h60l-134 -145h-58l-134 145h60zM32 25l413 613h-389v48h471v-24l-414 -614h422v-48h-503v25z" />
    <glyph glyph-name="zcaron" unicode="&#x17e;" horiz-adv-x="463" 
d="M119 720l103 -97l103 97h60l-134 -145h-58l-134 145h60zM36 24l277 441h-260v46h335v-24l-278 -441h286v-46h-360v24z" />
    <glyph glyph-name="florin" unicode="&#x192;" horiz-adv-x="360" 
d="M295.5 677q-18.5 5 -29.5 5q-26 0 -43.5 -13.5t-22.5 -53.5l-15 -104h119l-6 -46h-119l-76 -538q-8 -55 -39.5 -83t-78.5 -28q-18 0 -36 4.5t-29 12.5l6 45q12 -6 30.5 -11t29.5 -5q26 0 43.5 13.5t22.5 53.5l76 536h-56l6 46h56l15 106q8 55 39.5 83t78.5 28
q18 0 36 -4.5t29 -12.5l-6 -45q-12 6 -30.5 11z" />
    <glyph glyph-name="Scommaaccent" unicode="&#x218;" horiz-adv-x="627" 
d="M473 525q0 60 -49.5 91.5t-126.5 31.5q-79 0 -127 -29.5t-48 -93.5q0 -42 25 -67.5t62 -40t100 -30.5q76 -20 122.5 -38.5t79 -57t32.5 -103.5q0 -103 -67.5 -150.5t-175.5 -47.5q-112 0 -180 46.5t-68 150.5l1 18h51l-1 -27q0 -73 53 -106.5t140 -33.5q194 0 194 147
q0 47 -26.5 76t-65 44t-105.5 33q-74 20 -118 38t-75 54.5t-31 97.5q0 84 64.5 126t162.5 42q101 0 164 -44t63 -136v-13h-50v22zM293 -199.5q8 34.5 11 50.5h-24v69h65v-58l-30 -112h-34q4 16 12 50.5z" />
    <glyph glyph-name="scommaaccent" unicode="&#x219;" horiz-adv-x="534" 
d="M95 143q0 -51 44.5 -79t121.5 -28q69 0 107 27.5t38 72.5q0 35 -21.5 55t-53 30.5t-84.5 20.5q-61 12 -98 24.5t-63 39.5t-26 75q0 62 50 101t148 39q64 0 106 -21t61.5 -52.5t19.5 -64.5l-1 -14h-50v13q0 32 -28.5 62.5t-116.5 30.5q-85 0 -111.5 -29t-26.5 -63
q0 -29 20 -47t50 -27.5t83 -20.5q61 -13 100 -26t66 -41t27 -75q0 -82 -56.5 -119t-152.5 -37q-73 0 -118.5 23t-65 56t-19.5 63q0 12 0.5 18t0.5 7h50q-1 -5 -1 -14zM246 -199.5q8 34.5 11 50.5h-24v69h65v-58l-30 -112h-34q4 16 12 50.5z" />
    <glyph glyph-name="uni021A" unicode="&#x21a;" horiz-adv-x="578" 
d="M309 0h-52v638h-232v48h516v-48h-232v-638zM262 -199.5q8 34.5 11 50.5h-24v69h65v-58l-30 -112h-34q4 16 12 50.5z" />
    <glyph glyph-name="uni021B" unicode="&#x21b;" horiz-adv-x="346" 
d="M237.5 -5.5q-18.5 -4.5 -36.5 -4.5q-46 0 -74 28t-28 83v364h-56v46h56l18 163h33v-163h119v-46h-119v-362q0 -40 15.5 -53.5t41.5 -13.5q11 0 30 5t32 11v-45q-13 -8 -31.5 -12.5zM152 -199.5q8 34.5 11 50.5h-24v69h65v-58l-30 -112h-34q4 16 12 50.5z" />
    <glyph glyph-name="circumflex" unicode="&#x2c6;" horiz-adv-x="536" 
d="M284 720l134 -145h-60l-103 97l-103 -97h-60l134 145h58z" />
    <glyph glyph-name="caron" unicode="&#x2c7;" horiz-adv-x="536" 
d="M152 720l103 -97l103 97h60l-134 -145h-58l-134 145h60z" />
    <glyph glyph-name="uni02C9" unicode="&#x2c9;" horiz-adv-x="460" 
d="M71 736h318v-44h-318v44z" />
    <glyph glyph-name="breve" unicode="&#x2d8;" horiz-adv-x="520" 
d="M165 631.5q-44 18.5 -70.5 47.5t-26.5 58h56q12 -36 48.5 -55.5t87.5 -19.5t88 19.5t49 55.5h56q0 -29 -26.5 -58t-71 -47.5t-95.5 -18.5t-95 18.5z" />
    <glyph glyph-name="dotaccent" unicode="&#x2d9;" horiz-adv-x="280" 
d="M186.5 623q-19.5 -19 -47.5 -19q-26 0 -45.5 19.5t-19.5 46.5q0 28 19 47t47 19t47 -19.5t19 -46.5q0 -28 -19.5 -47z" />
    <glyph glyph-name="ring" unicode="&#x2da;" horiz-adv-x="340" 
d="M241.5 574.5q-29.5 -29.5 -71.5 -29.5t-71.5 29t-29.5 71t29.5 71.5t71.5 29.5t71.5 -29.5t29.5 -71.5q0 -41 -29.5 -70.5zM216 691q-19 19 -46 19t-46 -19t-19 -46t19 -45.5t46 -18.5t46 19t19 45q0 27 -19 46z" />
    <glyph glyph-name="ogonek" unicode="&#x2db;" horiz-adv-x="340" 
d="M166 -143q-40 0 -68.5 17t-28.5 55q0 21 15 38t39 33h50l-3 -2q-21 -15 -32.5 -27.5t-11.5 -30.5q0 -21 13 -30.5t31 -9.5q25 0 67 14l13 -33q-39 -24 -84 -24z" />
    <glyph glyph-name="tilde" unicode="&#x2dc;" horiz-adv-x="364" 
d="M337 659.5q-24 -25.5 -77 -25.5q-22 0 -41.5 4t-49.5 13q-47 15 -76 15q-25 0 -38.5 -7.5t-18.5 -24.5h-37q0 30 24 56t77 26q22 0 41.5 -4t49.5 -13q47 -15 76 -15q25 0 38.5 7.5t18.5 24.5h37q0 -31 -24 -56.5z" />
    <glyph glyph-name="hungarumlaut" unicode="&#x2dd;" horiz-adv-x="442" 
d="M147 720h64l1 -3l-111 -142h-50zM272 720h64l1 -3l-111 -142h-50z" />
    <glyph glyph-name="uni0326" unicode="&#x326;" horiz-adv-x="0" 
d="M-156 -199.5q8 34.5 11 50.5h-24v69h65v-58l-30 -112h-34q4 16 12 50.5z" />
    <glyph glyph-name="uni0394" unicode="&#x394;" horiz-adv-x="701" 
d="M306 686h88l240 -638v-48h-567v48zM569 55l-219 584l-219 -584h438z" />
    <glyph glyph-name="uni03A9" unicode="&#x3a9;" horiz-adv-x="699" 
d="M505 44l71 4h45v-48h-247v29q81 10 126.5 73t45.5 204v62q0 158 -56.5 219t-155.5 61t-155.5 -61t-56.5 -219v-62q0 -140 45 -203t125 -74v-29h-247v48h45l73 -4q-95 82 -95 286v26q0 191 70.5 265.5t195.5 74.5t195.5 -74.5t70.5 -265.5v-26q0 -204 -95 -286z" />
    <glyph glyph-name="uni03BC" unicode="&#x3bc;" horiz-adv-x="612" 
d="M357 57q36 21 56.5 58t20.5 82v314h51v-442q0 -33 27 -33q23 0 50 16v-43q-28 -19 -64 -19q-34 0 -49 25.5t-15 60.5q-26 -41 -69 -63.5t-93 -22.5q-44 0 -83 15.5t-62 45.5q1 -5 3.5 -21t2.5 -29v-162h-51v672h51v-322q0 -75 38.5 -114t105.5 -39q44 0 80 21z" />
    <glyph glyph-name="pi" unicode="&#x3c0;" horiz-adv-x="628" 
d="M458 145q0 -59 4 -91t11 -54h-48q-17 28 -17 137v328h-205q-5 -110 -26.5 -256.5t-47.5 -208.5h-49q27 73 48 214.5t25 250.5q-86 0 -122 -13l-11 32q43 26 140 26h395l-7 -45h-90v-320z" />
    <glyph glyph-name="endash" unicode="&#x2013;" horiz-adv-x="638" 
d="M69 297h500v-58h-500v58z" />
    <glyph glyph-name="emdash" unicode="&#x2014;" horiz-adv-x="1058" 
d="M72 296h910v-57h-910v57z" />
    <glyph glyph-name="quoteleft" unicode="&#x2018;" horiz-adv-x="224" 
d="M113 635.5q-8 -34.5 -11 -50.5h24v-69h-65v58l30 112h34q-4 -16 -12 -50.5z" />
    <glyph glyph-name="quoteright" unicode="&#x2019;" horiz-adv-x="219" 
d="M74 566.5q8 34.5 11 50.5h-24v69h65v-58l-30 -112h-34q4 16 12 50.5z" />
    <glyph glyph-name="quotesinglbase" unicode="&#x201a;" horiz-adv-x="238" 
d="M82 -50.5q8 34.5 11 50.5h-24v69h65v-58l-30 -112h-34q4 16 12 50.5z" />
    <glyph glyph-name="quotedblleft" unicode="&#x201c;" horiz-adv-x="366" 
d="M113 635.5q-8 -34.5 -11 -50.5h24v-69h-65v58l30 112h34q-4 -16 -12 -50.5zM212 635.5q-8 -34.5 -11 -50.5h24v-69h-65v58l30 112h34q-4 -16 -12 -50.5z" />
    <glyph glyph-name="quotedblright" unicode="&#x201d;" horiz-adv-x="361" 
d="M74 566.5q8 34.5 11 50.5h-24v69h65v-58l-30 -112h-34q4 16 12 50.5zM173 566.5q8 34.5 11 50.5h-24v69h65v-58l-30 -112h-34q4 16 12 50.5z" />
    <glyph glyph-name="quotedblbase" unicode="&#x201e;" horiz-adv-x="380" 
d="M82 -50.5q8 34.5 11 50.5h-24v69h65v-58l-30 -112h-34q4 16 12 50.5zM181 -50.5q8 34.5 11 50.5h-24v69h65v-58l-30 -112h-34q4 16 12 50.5z" />
    <glyph glyph-name="dagger" unicode="&#x2020;" horiz-adv-x="510" 
d="M276 -175h-65l16 637l-204 -16v64l204 -16l-16 192h65l-16 -192l204 16v-64l-204 16z" />
    <glyph glyph-name="daggerdbl" unicode="&#x2021;" horiz-adv-x="533" 
d="M476 0l-204 16l16 -192h-65l16 192l-204 -16v64l204 -16l-16 208l16 206l-204 -16v64l204 -16l-16 192h65l-16 -192l204 16v-64l-204 16l16 -206l-16 -208l204 16v-64z" />
    <glyph glyph-name="bullet" unicode="&#x2022;" horiz-adv-x="600" 
d="M413 273.5q-19 -32.5 -52 -51.5t-71 -19t-70 19t-51 51.5t-19 70.5t19 70.5t51 51.5t70 19t71 -19t52 -51.5t19 -70.5t-19 -70.5z" />
    <glyph glyph-name="ellipsis" unicode="&#x2026;" horiz-adv-x="735" 
d="M134 69v-69h-65v69h65zM347 69v-69h-65v69h65zM559 69v-69h-65v69h65z" />
    <glyph glyph-name="perthousand" unicode="&#x2030;" horiz-adv-x="1033" 
d="M240.5 370.5q-32.5 -34.5 -87.5 -34.5t-87.5 34.5t-32.5 85.5v110q0 51 32.5 85.5t87.5 34.5t87.5 -34.5t32.5 -85.5v-110q0 -51 -32.5 -85.5zM111 0l417 686h59l-416 -686h-60zM204.5 620.5q-18.5 19.5 -51.5 19.5q-32 0 -51 -20t-19 -50v-118q0 -30 19 -50t51 -20
q33 0 51.5 19.5t18.5 50.5v118q0 31 -18.5 50.5zM630.5 33.5q-32.5 -34.5 -87.5 -34.5t-87.5 34.5t-32.5 85.5v110q0 51 32.5 85.5t87.5 34.5t87.5 -34.5t32.5 -85.5v-110q0 -51 -32.5 -85.5zM959.5 33.5q-32.5 -34.5 -87.5 -34.5t-87.5 34.5t-32.5 85.5v110q0 51 32.5 85.5
t87.5 34.5t87.5 -34.5t32.5 -85.5v-110q0 -51 -32.5 -85.5zM594.5 283.5q-18.5 19.5 -51.5 19.5q-32 0 -51 -20t-19 -50v-118q0 -30 19 -50t51 -20q33 0 51.5 19.5t18.5 50.5v118q0 31 -18.5 50.5zM923.5 283.5q-18.5 19.5 -51.5 19.5q-32 0 -51 -20t-19 -50v-118
q0 -30 19 -50t51 -20q33 0 51.5 19.5t18.5 50.5v118q0 31 -18.5 50.5z" />
    <glyph glyph-name="guilsinglleft" unicode="&#x2039;" horiz-adv-x="278" 
d="M49 337l123 174h41l-97 -174l97 -174h-41z" />
    <glyph glyph-name="guilsinglright" unicode="&#x203a;" horiz-adv-x="278" 
d="M153 337l-97 174h41l123 -174l-123 -174h-41z" />
    <glyph glyph-name="fraction" unicode="&#x2044;" horiz-adv-x="476" 
d="M2 0l420 686h44l-417 -686h-47z" />
    <glyph glyph-name="Euro" unicode="&#x20ac;" horiz-adv-x="562" 
d="M132 433q17 76 61 135.5t111 93.5t151 34q33 0 57 -4v-50q-27 6 -57 6q-105 0 -175 -59t-93 -156h224v-48h-232q-2 -14 -2 -43q0 -32 2 -47h232v-48h-223q25 -95 94.5 -153t172.5 -58q27 0 57 5v-46q-32 -5 -57 -5q-83 0 -150 32.5t-110.5 91t-60.5 133.5h-104v48h95
q-2 30 -2 48q0 28 2 42h-95v48h102z" />
    <glyph glyph-name="uni2113" unicode="&#x2113;" horiz-adv-x="468" 
d="M337.5 305.5q-63.5 -68.5 -169.5 -74.5v-98q0 -57 21.5 -77t54.5 -20q38 0 93 16v-45q-17 -8 -41 -12.5t-47 -4.5q-61 0 -96.5 35t-35.5 106v99h-82v45h82v237q0 90 37.5 139t103.5 49q65 0 104 -47.5t39 -134.5v-28q0 -116 -63.5 -184.5zM168 276q83 6 133 62t50 152v28
q0 66 -26 101.5t-68 35.5q-43 0 -66 -37.5t-23 -107.5v-234z" />
    <glyph glyph-name="trademark" unicode="&#x2122;" horiz-adv-x="897" 
d="M217 289h-42v359h-129v38h299v-38h-128v-359zM732 627q-25 -58 -81 -180l-71 -158h-30l-149 334v-334h-36v397h57l147 -340l150 340h56v-397h-43v338z" />
    <glyph glyph-name="uni2126" unicode="&#x2126;" horiz-adv-x="699" 
d="M505 44l71 4h45v-48h-247v29q81 10 126.5 73t45.5 204v62q0 158 -56.5 219t-155.5 61t-155.5 -61t-56.5 -219v-62q0 -140 45 -203t125 -74v-29h-247v48h45l73 -4q-95 82 -95 286v26q0 191 70.5 265.5t195.5 74.5t195.5 -74.5t70.5 -265.5v-26q0 -204 -95 -286z" />
    <glyph glyph-name="estimated" unicode="&#x212e;" horiz-adv-x="768" 
d="M543.5 656.5q68.5 -39.5 106.5 -113.5t38 -175v-52h-510v-175q34 -52 90 -79t126 -27q67 0 120 25.5t87 74.5l38 -30q-42 -56 -104.5 -85.5t-142.5 -29.5q-92 0 -163 39.5t-110 114t-39 175.5v48q0 101 38 175.5t106.5 114t159.5 39.5t159.5 -39.5zM178 364h409v190
q-33 47 -85 72t-117 25q-67 0 -120.5 -26t-86.5 -76v-185z" />
    <glyph glyph-name="partialdiff" unicode="&#x2202;" horiz-adv-x="565" 
d="M258 696q61 0 109.5 -28t75.5 -78t27 -115v-264q0 -66 -28.5 -116t-79 -77.5t-113.5 -27.5t-113.5 27.5t-79 77.5t-28.5 116q0 62 28 112t77 78t108 28q53 0 100 -23.5t75 -64.5v140q0 47 -20 85t-56.5 60t-82.5 22h-80v48h81zM394.5 299.5q-21.5 38.5 -60 60t-85.5 21.5
t-85.5 -21.5t-60 -60t-21.5 -85.5v-9q0 -47 21.5 -85.5t60 -60t85.5 -21.5t85.5 21.5t60 60t21.5 85.5v9q0 47 -21.5 85.5z" />
    <glyph glyph-name="uni2206" unicode="&#x2206;" horiz-adv-x="701" 
d="M306 686h88l240 -638v-48h-567v48zM569 55l-219 584l-219 -584h438z" />
    <glyph glyph-name="product" unicode="&#x220f;" horiz-adv-x="749" 
d="M551 -96h-56v743h-301v-743h-56v743h-114v48h641v-48h-114v-743z" />
    <glyph glyph-name="summation" unicode="&#x2211;" horiz-adv-x="606" 
d="M27 -65l284 367l-272 368v25h479v-48h-390v-4l247 -336l-266 -345l1 -3h423v-55h-506v31z" />
    <glyph glyph-name="minus" unicode="&#x2212;" 
d="M562 283v-57h-511v57h511z" />
    <glyph glyph-name="uni2215" unicode="&#x2215;" horiz-adv-x="476" 
d="M2 0l420 686h44l-417 -686h-47z" />
    <glyph glyph-name="uni2219" unicode="&#x2219;" horiz-adv-x="235" 
d="M150 323v-69h-65v69h65z" />
    <glyph glyph-name="radical" unicode="&#x221a;" horiz-adv-x="566" 
d="M226 -146l-161 453l-74 -28l-14 42l130 50l131 -371q13 -50 15 -67l204 872h51l-221 -951h-61z" />
    <glyph glyph-name="infinity" unicode="&#x221e;" horiz-adv-x="764" 
d="M682 200.5q-21 -35.5 -55.5 -55t-73.5 -19.5q-45 0 -85 28t-97 91q-50 -58 -92 -88.5t-96 -30.5q-39 0 -72.5 20.5t-53.5 55t-20 76.5q0 44 20 79t55 55t78 20q51 0 93.5 -31t90.5 -88l8 9q33 37 57 58.5t54.5 36.5t66.5 15q64 0 103.5 -42t39.5 -108q0 -46 -21 -81.5z
M258 192q31 23 72 66l17 18l-6 8q-43 52 -77.5 79.5t-80.5 27.5q-45 0 -72.5 -33.5t-27.5 -80.5q0 -45 29.5 -76.5t77.5 -31.5q37 0 68 23zM488.5 368q-30.5 -23 -69.5 -64l-22 -23q57 -62 90 -87t70 -25q45 0 72.5 33t27.5 76q0 52 -28.5 82.5t-73.5 30.5q-36 0 -66.5 -23z
" />
    <glyph glyph-name="integral" unicode="&#x222b;" horiz-adv-x="267" 
d="M123.5 722q40.5 28 91.5 28v-38q-16 0 -37 -7.5t-36 -22.5t-15 -36q5 -101 17 -395t12 -389q0 -58 -39.5 -85t-90.5 -27v38q16 0 36 7.5t34.5 23t14.5 37.5q-5 101 -16.5 394t-11.5 388q0 56 40.5 84z" />
    <glyph glyph-name="approxequal" unicode="&#x2248;" 
d="M565 340.5q-24 -20.5 -60.5 -38t-78.5 -17.5q-28 0 -54 8.5t-63 24.5q-40 17 -66 25t-55 8q-42 0 -78.5 -17.5t-60.5 -38t-24 -22.5v60q0 2 24 22.5t60.5 38t78.5 17.5q28 0 54 -8.5t63 -24.5q40 -17 66 -25t55 -8q42 0 78.5 17.5t60.5 38t24 22.5v-60q0 -2 -24 -22.5z
M565 138.5q-24 -20.5 -60.5 -38t-78.5 -17.5q-28 0 -54 8.5t-63 24.5q-40 17 -66 25t-55 8q-42 0 -78.5 -17.5t-60.5 -38t-24 -22.5v60q0 2 24 22.5t60.5 38t78.5 17.5q28 0 54 -8.5t63 -24.5q40 -17 66 -25t55 -8q42 0 78.5 17.5t60.5 38t24 22.5v-60q0 -2 -24 -22.5z" />
    <glyph glyph-name="notequal" unicode="&#x2260;" 
d="M556 386v-58h-165l-102 -150h267v-58h-306l-81 -120h-71l82 120h-124v58h163l103 150h-266v58h305l86 125h68l-85 -125h126z" />
    <glyph glyph-name="lessequal" unicode="&#x2264;" 
d="M559 521v-62l-462 -159l462 -159v-62l-509 177v88zM559 57v-57h-510v57h510z" />
    <glyph glyph-name="greaterequal" unicode="&#x2265;" 
d="M56 79v62l462 159l-462 159v62l509 -177v-88zM56 0v57h510v-57h-510z" />
    <glyph glyph-name="lozenge" unicode="&#x25ca;" horiz-adv-x="490" 
d="M29 343l162 343h88l162 -343l-162 -343h-88zM235 47l144 296l-144 296l-144 -296z" />
    <glyph glyph-name="caron.alt" horiz-adv-x="219" 
d="M74 566.5q8 34.5 11 50.5h-24v69h65v-58l-30 -112h-34q4 16 12 50.5z" />
    </font>
</defs>
</svg>
