<?xml version="1.0" standalone="no"?>
<!DOCTYPE svg PUBLIC "-//W3C//DTD SVG 1.1//EN" "http://www.w3.org/Graphics/SVG/1.1/DTD/svg11.dtd" >
<svg xmlns="http://www.w3.org/2000/svg" xmlns:xlink="http://www.w3.org/1999/xlink" version="1.1">
<metadata>
Created by FontForge 20201107 at Fri Sep 23 20:07:23 2011
 By 
Copyright (c) 2011 by Omnibus-Type (www.omnibus-type.com), with Reserved Font Name "Chivo".
</metadata>
<defs>
<font id="Chivo-Regular" horiz-adv-x="615" >
  <font-face 
    font-family="Chivo"
    font-weight="400"
    font-stretch="normal"
    units-per-em="1000"
    panose-1="2 0 0 0 0 0 0 0 0 0"
    ascent="800"
    descent="-200"
    x-height="511"
    cap-height="686"
    bbox="-80 -250 1004 926"
    underline-thickness="50"
    underline-position="-100"
    unicode-range="U+0020-FB02"
  />
<missing-glyph horiz-adv-x="500" 
d="M0 700h500v-700h-500v700zM420 650h-340l170 -255zM450 95v510l-170 -255zM420 50l-170 255l-170 -255h340zM50 95l170 255l-170 255v-510z" />
    <glyph glyph-name=".notdef" horiz-adv-x="500" 
d="M0 700h500v-700h-500v700zM420 650h-340l170 -255zM450 95v510l-170 -255zM420 50l-170 255l-170 -255h340zM50 95l170 255l-170 255v-510z" />
    <glyph glyph-name=".null" horiz-adv-x="0" 
 />
    <glyph glyph-name="nonmarkingreturn" horiz-adv-x="333" 
 />
    <glyph glyph-name="space" unicode=" " horiz-adv-x="244" 
 />
    <glyph glyph-name="exclam" unicode="!" horiz-adv-x="269" 
d="M85 111h101v-111h-101v111zM193 686q-3 -23 -25 -512h-66q-23 488 -24 512h115z" />
    <glyph glyph-name="quotedbl" unicode="&#x22;" horiz-adv-x="364" 
d="M146 539l-21 -132h-39l-22 132v147h82v-147zM300 539q-14 -80 -22 -132h-39l-21 132v147h82v-147z" />
    <glyph glyph-name="numbersign" unicode="#" horiz-adv-x="643" 
d="M68 486h138l47 210h76l-47 -210h150l47 210h76l-47 -210h105v-76h-122l-34 -155h116v-76h-133l-40 -179h-76l40 179h-150l-40 -179h-76l40 179h-110v76h127l34 155h-121v76zM231 255h150l34 155h-150z" />
    <glyph glyph-name="dollar" unicode="$" horiz-adv-x="546" 
d="M268 105q152 0 152 97q0 39 -27.5 59.5t-69.5 34t-90 24.5t-90 31t-69.5 54t-27.5 85q0 50 15.5 81t42.5 52q52 42 141 48l-11 89h73l-11 -89q89 -4 144 -47q58 -45 58 -129v-12h-95v14q0 44 -36.5 66.5t-92.5 22.5t-94.5 -19.5t-38.5 -61.5q0 -48 59 -74
q26 -12 59.5 -20.5t68 -18t68 -22t60.5 -32.5q58 -44 58 -122q0 -97 -62 -148q-56 -45 -156 -49l11 -85h-73l10 86q-151 10 -196 106q-17 35 -17 83l1 18h95l-1 -19q0 -53 40 -78t102 -25z" />
    <glyph glyph-name="percent" unicode="%" horiz-adv-x="699" 
d="M177 0h-70l418 686h68zM279 457q0 -51 -33 -85q-34 -36 -88 -36h-7q-54 0 -88 36q-33 34 -33 85v107q0 51 33 86q34 35 88 35h7q54 0 88 -35q33 -35 33 -86v-107zM215 571q0 25 -15.5 42t-44.5 17t-45 -17t-16 -42v-121q0 -25 16 -42t45 -17t44.5 17t15.5 42v121z
M669 120q0 -51 -33 -86q-34 -35 -88 -35h-7q-54 0 -88 35q-33 35 -33 86v107q0 51 33 85q34 36 88 36h7q54 0 88 -36q33 -34 33 -85v-107zM605 234q0 25 -15.5 42t-44.5 17t-45 -17t-16 -42v-121q0 -25 16 -42t45 -17t44.5 17t15.5 42v121z" />
    <glyph glyph-name="ampersand" unicode="&#x26;" horiz-adv-x="662" 
d="M213 684q41 12 78 12t70 -7v-91q-29 9 -56 9q-28 0 -52.5 -6.5t-42.5 -18.5q-39 -28 -39 -79q0 -45 37 -77q39 -31 98 -31h123l28 143h68v-143h108v-89h-108v-306h-225q-103 0 -170 46q-72 51 -72 147q0 123 126 161l3 2q-48 21 -80.5 56.5t-32.5 88.5t18.5 88t49 59
t71.5 36zM313 306q-75 0 -116 -27t-41 -81q0 -56 46 -84q42 -25 112 -25h113v217h-114z" />
    <glyph glyph-name="quotesingle" unicode="'" horiz-adv-x="210" 
d="M85 407l-21 132v147h82v-147l-22 -132h-39z" />
    <glyph glyph-name="parenleft" unicode="(" horiz-adv-x="289" 
d="M49 264q0 117 41 225.5t118 196.5h52q-90 -143 -119 -309q-10 -57 -10 -112q0 -56 10 -113t27 -111q33 -103 92 -198h-52q-77 88 -118 196t-41 225z" />
    <glyph glyph-name="parenright" unicode=")" horiz-adv-x="288" 
d="M199 489.5q41 -108.5 41 -224.5q0 -117 -41 -225.5t-118 -196.5h-52q89 141 118 309q10 57 10 113q0 55 -10 112t-27 111q-34 106 -91 198h52q77 -88 118 -196.5z" />
    <glyph glyph-name="asterisk" unicode="*" horiz-adv-x="468" 
d="M275 468l109 -125l-64 -49l-88 144l-87 -142l-64 48l111 125l-163 40l25 77l155 -66l-13 166h79l-16 -167l158 65l23 -78z" />
    <glyph glyph-name="plus" unicode="+" 
d="M348 297h215v-84h-215v-213h-83v213h-214v84h214v214h83v-214z" />
    <glyph glyph-name="comma" unicode="," horiz-adv-x="238" 
d="M83 -124l27 124h-41v111h101v-85l-35 -150h-52z" />
    <glyph glyph-name="hyphen" unicode="-" horiz-adv-x="391" 
d="M69 319h253v-98h-253v98z" />
    <glyph glyph-name="period" unicode="." horiz-adv-x="239" 
d="M69 111h101v-111h-101v111z" />
    <glyph glyph-name="slash" unicode="/" horiz-adv-x="600" 
d="M96 -171h-81l490 857h80z" />
    <glyph glyph-name="zero" unicode="0" 
d="M543 221q0 -100 -66 -166q-65 -65 -164 -65h-13q-100 0 -164 65q-65 67 -65 166v243q0 101 65.5 166.5t163.5 65.5h13q97 0 164 -66q66 -64 66 -166v-243zM445 472q0 57 -39 96t-99 39q-59 0 -99 -39q-39 -37 -39 -96v-258q0 -59 39 -96q40 -39 99 -39q60 0 99 39t39 96
v258z" />
    <glyph glyph-name="one" unicode="1" 
d="M97 619q117 12 242 67h38v-597h180v-89h-458v89h180v466h-182v64z" />
    <glyph glyph-name="two" unicode="2" 
d="M70 24q0 63 36 117q23 35 57 60l199 150q66 52 75 107q3 17 3 33q0 15 -5 34.5t-19 37.5q-36 44 -105 44q-86 0 -122 -62q-21 -36 -21 -70v-14q0 -6 1 -12h-98q-1 7 -1 10v8q0 65 35 125q35 61 111 89q40 15 100 15t103 -20t69 -50q50 -56 50 -131q0 -63 -18 -97
q-33 -61 -104 -116l-191 -146q-25 -17 -36.5 -29.5t-11.5 -17.5h364v-89h-471v24z" />
    <glyph glyph-name="three" unicode="3" 
d="M156 191q0 -55 37 -83.5t106 -28.5q68 0 109 28t41 87q0 60 -47 88q-38 22 -107 22h-75v90h77q92 0 125 60q11 20 11 48t-11 48t-30 33q-34 24 -93 24q-87 0 -117 -60q-10 -20 -10 -46v-9h-98v18q0 84 64 135q65 51 161 51h9q97 0 159 -50q64 -53 64 -136
q0 -61 -31 -96.5t-78 -57.5l1 -3q54 -17 89 -58.5t35 -110.5q0 -86 -68 -140q-67 -54 -171 -54h-12q-112 0 -176 57q-62 54 -62 147v8h98v-11z" />
    <glyph glyph-name="four" unicode="4" 
d="M50 259q136 204 213 437h105q-34 -123 -113 -267q-62 -113 -112 -171h230v199q35 68 54 137h44v-336h87v-89h-87v-169h-98v169h-323v90z" />
    <glyph glyph-name="five" unicode="5" 
d="M190 396q64 51 130 51q65 0 106 -19t68 -50q51 -60 51 -156q0 -103 -64.5 -167.5t-172.5 -64.5q-106 0 -172 66q-63 63 -65 158h98q2 -60 43 -98q38 -37 96 -37q60 0 98 37q41 39 41 109q0 59 -37 97q-39 41 -98 41q-86 0 -129 -69l-88 13l28 379h386v-89h-304z" />
    <glyph glyph-name="six" unicode="6" 
d="M177 366q62 66 155 66q91 0 155 -60q65 -61 65 -151q0 -107 -69 -171q-66 -60 -167 -60t-168 62q-69 66 -69 171v242q0 96 67.5 163.5t163.5 67.5q102 0 166 -60q65 -62 65 -163h-98q0 63 -36.5 98.5t-96.5 35.5q-55 0 -94 -39t-39 -94v-108zM454 211q0 60 -40 96t-98 36
q-59 0 -98 -36q-41 -37 -41 -96t41 -96q39 -36 98 -36q58 0 98 36t40 96z" />
    <glyph glyph-name="seven" unicode="7" 
d="M180 0q0 283 250 597h-357v89h482v-53q-175 -206 -239 -417q-24 -82 -24 -165v-23q0 -10 2 -28h-114z" />
    <glyph glyph-name="eight" unicode="8" 
d="M431 350q52 -24 84 -61t32 -104q0 -91 -62 -143t-178 -52q-108 0 -173 50q-67 51 -67 145q0 66 32 104.5t84 60.5v4q-47 28 -63 51q-30 43 -30 94t16 86.5t45 60.5q60 50 156 50t156 -50q61 -52 61 -141q0 -83 -56 -126q-17 -13 -37 -25v-4zM188 501q0 -45 32 -75.5
t87 -30.5t87 30.5t32 75.5t-32 75.5t-87 30.5t-87 -30.5t-32 -75.5zM176 242q-11 -22 -11 -50q0 -29 11 -50t30 -35q40 -28 101 -28t101 28q41 30 41 85t-41 86q-39 28 -101 28q-98 0 -131 -64z" />
    <glyph glyph-name="nine" unicode="9" 
d="M438 320q-62 -66 -155 -66q-91 0 -155 60q-65 61 -65 151q0 107 69 171q66 60 167 60t167 -62q70 -66 70 -171v-242q0 -96 -67.5 -163.5t-163.5 -67.5q-102 0 -165 60q-66 62 -66 163h98q0 -63 36.5 -98.5t96.5 -35.5q55 0 94 39t39 94v108zM161 475q0 -60 40 -96t98 -36
q59 0 99 36q40 37 40 96t-40 96q-40 36 -99 36q-58 0 -98 -36t-40 -96z" />
    <glyph glyph-name="colon" unicode=":" horiz-adv-x="239" 
d="M69 111h101v-111h-101v111zM69 511h101v-112h-101v112z" />
    <glyph glyph-name="semicolon" unicode=";" horiz-adv-x="239" 
d="M69 511h101v-112h-101v112zM83 -124l27 124h-41v111h101v-85l-35 -150h-52z" />
    <glyph glyph-name="less" unicode="&#x3c;" 
d="M44 307l509 197v-90l-429 -160l429 -160v-90l-509 196v107z" />
    <glyph glyph-name="equal" unicode="=" 
d="M55 318v84h504v-84h-504zM55 106v83h504v-83h-504z" />
    <glyph glyph-name="greater" unicode="&#x3e;" 
d="M490 254q-312 116 -428 160v90l509 -197v-107l-509 -196v90q107 40 213.5 79.5t214.5 80.5z" />
    <glyph glyph-name="question" unicode="?" horiz-adv-x="502" 
d="M205 111h104v-111h-104v111zM29 458q-3 12 -3 38q0 25 10.5 60.5t35.5 66.5q61 73 174 73h6q112 0 168 -75q24 -31 33 -64t9 -65q0 -33 -11.5 -63t-28.5 -52t-37.5 -38t-37.5 -31q-40 -37 -40 -74v-49h-100v64q0 47 41 89q17 18 37 34t37 34q41 43 41 92q0 40 -26 70
q-33 39 -92 39q-67 0 -99 -44q-21 -29 -21 -68l2 -37h-98z" />
    <glyph glyph-name="at" unicode="@" horiz-adv-x="885" 
d="M562 251q-118 0 -159.5 -13t-57.5 -30t-16 -50q0 -66 99 -66q54 0 92 37q42 40 42 104v18zM259 364q-2 10 -2 31t15 46t41 43q53 37 141 37h9q96 0 142 -38.5t46 -108.5v-245q0 -38 37 -38q73 0 98 117q10 45 10 122q0 76 -25 137t-69 100q-86 75 -244 75
q-170 0 -264 -94q-97 -97 -97 -282t79.5 -274.5t247.5 -89.5q56 0 103.5 12.5t61.5 19.5v-60q-47 -18 -98 -22.5t-67 -4.5q-280 0 -359 229q-27 78 -27 192q0 113 34 196t92 134q109 99 295 99q280 0 366 -205q30 -72 30 -164q0 -93 -18 -150t-45 -92q-52 -64 -124 -64
q-76 0 -94 52q-5 16 -7 35l-3 -3q-55 -84 -166 -84q-109 0 -144 68q-13 26 -13 74t23.5 80t65.5 49q68 27 232 27v44q0 37 -14 53q-28 34 -96 34q-65 0 -92 -33q-15 -19 -15 -43v-11h-86z" />
    <glyph glyph-name="A" unicode="A" horiz-adv-x="652" 
d="M484 149h-328l-57 -149h-95l268 686h108l268 -686h-106zM318 568l-127 -330h259l-126 330h-6z" />
    <glyph glyph-name="B" unicode="B" horiz-adv-x="651" 
d="M92 686h304q75 0 128 -49q52 -49 52 -119q0 -69 -39 -113q-29 -32 -81 -47v-5q85 -14 122 -93q14 -31 14 -73t-15 -75.5t-41 -57.5q-55 -54 -134 -54h-310v686zM376 394q41 0 72 30q30 28 30 71q0 42 -30 72t-72 30h-186v-203h186zM386 89q45 0 76.5 31.5t31.5 76.5
t-31.5 76.5t-76.5 31.5h-196v-216h196z" />
    <glyph glyph-name="C" unicode="C" horiz-adv-x="663" 
d="M609 261q0 -133 -79 -205q-71 -66 -186 -66q-128 0 -202 76q-80 81 -80 232v90q0 150 80 232q75 76 202 76q117 0 188 -68q77 -72 77 -205h-98q0 92 -47 141q-43 43 -120 43q-132 0 -170 -119q-14 -42 -14 -100v-90q0 -166 109 -206q34 -13 73 -13t70.5 10.5t53.5 32.5
q49 49 49 139h94z" />
    <glyph glyph-name="D" unicode="D" horiz-adv-x="675" 
d="M330 89q132 0 172 119q14 41 14 100v70q0 166 -112 206q-34 13 -74 13h-140v-508h140zM92 0v686h238q124 0 200 -76q84 -82 84 -232v-70q0 -150 -84 -232q-76 -76 -200 -76h-238z" />
    <glyph glyph-name="E" unicode="E" horiz-adv-x="593" 
d="M92 0v686h450l-13 -89h-339v-202h307v-89h-307v-217h345l14 -89h-457z" />
    <glyph glyph-name="F" unicode="F" horiz-adv-x="550" 
d="M511 597h-321v-209h280v-89h-280v-299h-98v686h432z" />
    <glyph glyph-name="G" unicode="G" horiz-adv-x="677" 
d="M607 128q0 -83 6 -128h-58q-12 37 -20 82q-64 -92 -191 -92q-128 0 -202 76q-80 81 -80 232v90q0 150 80 232q75 76 202 76q114 0 185 -62q78 -69 78 -189h-98q0 82 -48 125q-42 37 -117 37q-132 0 -170 -119q-14 -42 -14 -100v-90q0 -166 109 -206q34 -13 75 -13
q86 0 126.5 43t40.5 139v13h-194v88h290v-234z" />
    <glyph glyph-name="H" unicode="H" horiz-adv-x="693" 
d="M503 0v306h-313v-306h-98v686h98v-291h313v291h98v-686h-98z" />
    <glyph glyph-name="I" unicode="I" horiz-adv-x="364" 
d="M53 686h258v-89h-80v-508h80v-89h-258v89h80v508h-80v89z" />
    <glyph glyph-name="J" unicode="J" horiz-adv-x="526" 
d="M29 208h98v-27q0 -45 30.5 -73.5t77.5 -28.5q46 0 76 27.5t30 74.5v505h98v-499q0 -95 -59 -147q-55 -50 -144 -50h-9q-138 0 -183 111q-15 37 -15 86v21z" />
    <glyph glyph-name="K" unicode="K" horiz-adv-x="623" 
d="M92 686h98v-357l298 357h113l-252 -303l260 -383h-114l-208 308l-97 -102v-206h-98v686z" />
    <glyph glyph-name="L" unicode="L" horiz-adv-x="536" 
d="M92 0v686h98v-597h315l14 -89h-427z" />
    <glyph glyph-name="M" unicode="M" horiz-adv-x="938" 
d="M748 0v571h-6l-237 -571h-83l-236 571h-5v-571h-89v686h154l221 -540h4l222 540h153v-686h-98z" />
    <glyph glyph-name="N" unicode="N" horiz-adv-x="694" 
d="M519 0l-335 502l-3 -1v-501h-89v686h86l332 -496l3 1v495h89v-686h-83z" />
    <glyph glyph-name="O" unicode="O" horiz-adv-x="690" 
d="M531 388q0 166 -111 206q-35 13 -75 13q-41 0 -75 -12.5t-58 -38.5q-53 -56 -53 -168v-90q0 -166 111 -206q34 -13 75 -13q40 0 74.5 12.5t58.5 38.5q53 56 53 168v90zM629 298q0 -150 -83 -232q-78 -76 -201 -76t-201 76q-83 82 -83 232v90q0 150 83 232q78 76 201 76
t201 -76q83 -82 83 -232v-90z" />
    <glyph glyph-name="P" unicode="P" horiz-adv-x="624" 
d="M190 597v-222h189q47 0 82 33q34 32 34 78t-33 78q-35 33 -83 33h-189zM190 286v-286h-98v686h296q87 0 145 -54q60 -57 60 -146t-60 -146q-58 -54 -145 -54h-198z" />
    <glyph glyph-name="Q" unicode="Q" horiz-adv-x="690" 
d="M618 -112q-59 -33 -119 -33q-61 0 -93.5 13t-53.5 33q-37 36 -47 91q-109 13 -174 87q-70 81 -70 219v90q0 150 83 232q78 76 201 76t201 -76q83 -82 83 -232v-90q0 -132 -65 -212q-59 -74 -162 -91q7 -28 24 -41q32 -24 75 -24q45 0 105 24l12 4v-70zM531 388
q0 166 -111 206q-35 13 -75 13q-41 0 -75 -12.5t-58 -38.5q-53 -56 -53 -168v-90q0 -166 111 -206q34 -13 75 -13q40 0 74.5 12.5t58.5 38.5q53 56 53 168v90z" />
    <glyph glyph-name="R" unicode="R" horiz-adv-x="670" 
d="M630 3q-23 -9 -47 -9q-20 0 -41 6q-36 10 -52 59q-9 25 -9 71t-11.5 80.5t-29.5 55.5q-31 36 -76 36h-174v-302h-98v686h292q141 0 191 -94q17 -32 17 -67q0 -36 -9.5 -63t-26.5 -50q-35 -48 -87 -58v-5q66 -25 96 -100q14 -35 14 -79q0 -45 3.5 -68t9.5 -37
q12 -25 38 -34v-28zM385 391q44 0 77 29q32 29 32 72v4q0 43 -29.5 72t-79.5 29h-195v-206h195z" />
    <glyph glyph-name="S" unicode="S" horiz-adv-x="627" 
d="M151 215l-1 -21q0 -59 44.5 -87t119.5 -28t118.5 27.5t43.5 75.5t-30 70.5t-75.5 36.5t-98.5 26t-98.5 34t-75.5 59t-30 93t19.5 91t52.5 58q65 46 174 46q106 0 171 -45q71 -49 71 -147v-12h-98v15q0 49 -40 74.5t-102 25.5q-105 0 -138 -50q-12 -17 -12 -41
q0 -40 30 -61t75.5 -35t98.5 -26.5t98.5 -34t75.5 -58t30 -96.5q0 -61 -20 -101.5t-55 -65.5q-67 -48 -186 -48q-181 0 -240 110q-21 39 -21 95l1 20h98z" />
    <glyph glyph-name="T" unicode="T" horiz-adv-x="578" 
d="M338 597v-597h-98v597h-215v89h528v-89h-215z" />
    <glyph glyph-name="U" unicode="U" horiz-adv-x="680" 
d="M594 686v-467q0 -104 -68 -167q-68 -62 -180 -62h-13q-112 0 -179 62q-68 62 -68 167v467h98v-465q0 -62 42 -101q45 -41 116 -41t112.5 39.5t41.5 102.5v465h98z" />
    <glyph glyph-name="V" unicode="V" horiz-adv-x="603" 
d="M309 133l194 553h95l-244 -686h-105l-244 686h105l193 -553h6z" />
    <glyph glyph-name="W" unicode="W" horiz-adv-x="916" 
d="M455 496l-145 -496h-100l-196 686h105l145 -517h6l146 517h95l145 -517h6l146 517h95l-201 -686h-100l-140 496h-7z" />
    <glyph glyph-name="X" unicode="X" horiz-adv-x="631" 
d="M313 276l-195 -276h-109l250 355l-227 330h118l168 -245q35 49 66 93.5t54.5 78t37.5 53.5l14 20h109l-19 -27q-33 -48 -99 -141.5t-109 -155.5l249 -361h-118z" />
    <glyph glyph-name="Y" unicode="Y" horiz-adv-x="572" 
d="M335 265v-265h-98v265l-242 421h112l183 -319h4l181 319h101z" />
    <glyph glyph-name="Z" unicode="Z" horiz-adv-x="596" 
d="M32 0v38l365 559h-341v89h491v-38l-366 -559h374v-89h-523z" />
    <glyph glyph-name="bracketleft" unicode="[" horiz-adv-x="293" 
d="M85 -161v847h169v-55h-88v-737h88v-55h-169z" />
    <glyph glyph-name="backslash" unicode="\" horiz-adv-x="600" 
d="M15 686h80l490 -857h-81z" />
    <glyph glyph-name="bracketright" unicode="]" horiz-adv-x="293" 
d="M39 -161v55h88v737h-88v55h169v-847h-169z" />
    <glyph glyph-name="asciicircum" unicode="^" horiz-adv-x="596" 
d="M298 421l-165 -421h-84l197 511h103l197 -511h-84q-49 123 -164 421z" />
    <glyph glyph-name="underscore" unicode="_" horiz-adv-x="694" 
d="M97 -124v60h500v-60h-500z" />
    <glyph glyph-name="grave" unicode="`" horiz-adv-x="333" 
d="M183 575l-115 142l1 3h89l95 -145h-70z" />
    <glyph glyph-name="a" unicode="a" horiz-adv-x="585" 
d="M390 234q-128 0 -171 -13.5t-60 -32t-17 -54.5q0 -69 105 -69q56 0 99 39q44 41 44 110v20zM394 82q-61 -92 -179 -92q-116 0 -153 72q-14 29 -14 80t25 84.5t70 51.5q72 29 247 29v47q0 39 -14 56q-31 36 -103 36q-70 0 -98 -34q-16 -20 -16 -46v-12h-92q-2 10 -2 33
q0 22 16 49t44 46q60 39 150 39h9q102 0 151 -40.5t49 -115.5v-265q0 -19 8.5 -27t19.5 -8q24 0 46 14v-69q-33 -20 -77 -20q-45 0 -65 26t-22 66z" />
    <glyph glyph-name="b" unicode="b" horiz-adv-x="583" 
d="M152 81l-33 -81h-36v720h94v-274q22 31 61 53t87 22t84.5 -16t63.5 -48q58 -69 58 -190v-11q0 -132 -61 -202q-55 -64 -146 -64q-114 0 -172 91zM176 255q0 -150 77 -181q24 -9 53 -9q131 0 131 190q0 151 -78 181q-24 10 -53 10q-62 0 -94 -41q-36 -47 -36 -150z" />
    <glyph glyph-name="c" unicode="c" horiz-adv-x="544" 
d="M495 200q0 -99 -60 -156q-58 -54 -151 -54h-8q-101 0 -161 66q-64 69 -64 187v24q0 118 64 187q61 67 160 67h8q93 0 152.5 -57.5t59.5 -153.5h-93q0 94 -70 126q-23 10 -52 10q-30 0 -54.5 -10t-42.5 -30q-38 -41 -38 -115v-54q0 -89 37 -130.5t101 -41.5q63 0 92.5 38
t29.5 97h90z" />
    <glyph glyph-name="d" unicode="d" horiz-adv-x="583" 
d="M406 446v274h94v-720h-70q-5 19 -13 70q-57 -80 -158 -80q-91 0 -146 64q-61 70 -61 202v11q0 121 58 190q54 64 149 64t147 -75zM146 255q0 -150 77 -181q24 -9 53 -9q131 0 131 190q0 151 -78 181q-24 10 -53 10q-62 0 -94 -41q-36 -47 -36 -150z" />
    <glyph glyph-name="e" unicode="e" horiz-adv-x="556" 
d="M145 234q3 -118 79 -156q26 -13 66 -13q39 0 64 15t38 35q21 32 21 75h89q0 -91 -60 -146q-60 -54 -154 -54h-4q-105 0 -168 66q-65 70 -65 189v20q0 119 65 189q61 67 165 67h7q95 0 154 -58q60 -58 60 -158v-71h-357zM283 446q-56 0 -92 -34.5t-44 -104.5h262v12
q0 60 -37 95q-34 32 -89 32z" />
    <glyph glyph-name="f" unicode="f" horiz-adv-x="338" 
d="M103 580q0 148 119 148q56 0 94 -19v-69q-31 13 -51 13q-21 0 -31 -2t-18 -9q-19 -14 -19 -52v-79h119v-75h-119v-436h-94v436h-56v75h56v69z" />
    <glyph glyph-name="g" unicode="g" horiz-adv-x="568" 
d="M447 470q50 -43 50 -110q0 -69 -50 -113q-53 -47 -151 -47h-68q-30 0 -50 -15.5t-20 -39.5t19 -38t51 -14h193q60 0 95 -37t35 -94q0 -71 -55 -112q-51 -38 -135 -38h-201q-52 0 -88 38t-36 82q0 43 21 74t54 45q-46 29 -46 83q0 37 21.5 62.5t58.5 38.5q-67 38 -67 125
q0 71 50 114q54 47 156 47h4q57 0 102 -17q71 35 81 99h80q0 -50 -27 -85t-75 -45zM171 360q0 -47 33.5 -66t82.5 -19t83 19t34 66t-34 66.5t-83 19.5t-82.5 -19.5t-33.5 -66.5zM380 -113q32 0 55 18.5t23 42.5t-16.5 39.5t-48.5 15.5h-206q-24 0 -41 -17t-17 -41t17 -41
t41 -17h193z" />
    <glyph glyph-name="h" unicode="h" horiz-adv-x="593" 
d="M177 447q63 74 158 74q125 0 166 -97q14 -34 14 -80v-344h-94v327q0 65 -30 92t-78 27q-54 0 -95 -41t-41 -101v-304h-94v720h94v-273z" />
    <glyph glyph-name="i" unicode="i" horiz-adv-x="260" 
d="M83 0v511h94v-511h-94zM81 720h98v-87h-98v87z" />
    <glyph glyph-name="j" unicode="j" horiz-adv-x="260" 
d="M-34 -97q33 -15 52 -15t29.5 2.5t18.5 9.5q17 16 17 56v555h94v-526q0 -89 -27.5 -130t-97.5 -41q-52 0 -86 19v70zM81 720h98v-87h-98v87z" />
    <glyph glyph-name="k" unicode="k" horiz-adv-x="535" 
d="M407 0l-153 190l-77 -80v-110h-94v720h94v-494l228 285h103l-197 -248l210 -263h-114z" />
    <glyph glyph-name="l" unicode="l" horiz-adv-x="268" 
d="M87 0v720h94v-720h-94z" />
    <glyph glyph-name="m" unicode="m" horiz-adv-x="867" 
d="M389 327q0 119 -92 119q-49 0 -84.5 -41t-35.5 -101v-304h-94v511h68l13 -75q59 85 161 85q101 0 140 -85q37 52 77.5 68.5t79.5 16.5q38 0 68 -10.5t52 -32.5q47 -45 47 -134v-344h-94v327q0 119 -92 119q-49 0 -84.5 -41t-35.5 -101v-304h-94v327z" />
    <glyph glyph-name="n" unicode="n" horiz-adv-x="593" 
d="M164 436q65 85 171 85q125 0 166 -97q14 -34 14 -80v-344h-94v327q0 65 -30 92t-78 27q-54 0 -95 -41t-41 -101v-304h-94v511h68z" />
    <glyph glyph-name="o" unicode="o" horiz-adv-x="574" 
d="M428 265q0 92 -41 139q-36 42 -100 42q-99 0 -130 -98q-11 -35 -11 -83v-19q0 -92 41 -139q36 -42 100 -42q99 0 130 99q11 34 11 82v19zM522 237q0 -121 -69 -187q-63 -60 -166 -60t-166 60q-69 66 -69 187v37q0 121 69 186q63 61 166 61t166 -61q69 -65 69 -186v-37z
" />
    <glyph glyph-name="p" unicode="p" horiz-adv-x="583" 
d="M177 65v-246h-94v692h70q5 -19 13 -70q57 80 158 80q91 0 146 -63q61 -71 61 -203v-11q0 -121 -58 -190q-54 -64 -149 -64t-147 75zM437 256q0 150 -77 180q-24 10 -53 10q-63 0 -95 -41q-36 -47 -36 -149q0 -151 78 -182q24 -9 53 -9q62 0 94 41q36 47 36 150z" />
    <glyph glyph-name="q" unicode="q" horiz-adv-x="583" 
d="M431 430l33 81h36v-691h-94v245q-22 -31 -61 -53t-87 -22t-84.5 16t-63.5 48q-58 69 -58 190v11q0 132 61 203q55 63 146 63q114 0 172 -91zM407 256q0 150 -77 180q-24 10 -53 10q-63 0 -95 -41q-36 -47 -36 -149q0 -151 78 -182q24 -9 53 -9q62 0 94 41q36 47 36 150z
" />
    <glyph glyph-name="r" unicode="r" horiz-adv-x="490" 
d="M464 361l-3 -38h-83v22q0 35 -18 57q-33 44 -81 44q-53 0 -80 -46q-22 -38 -22 -95v-305h-94v511h67l14 -76q15 45 82 73q29 13 67 13t65.5 -12.5t46.5 -34.5q39 -44 39 -113z" />
    <glyph glyph-name="s" unicode="s" horiz-adv-x="534" 
d="M45 138l1 22h93v-10q0 -63 80 -80q24 -5 63 -5t74 18.5t35 52.5t-24.5 49.5t-61.5 24t-79.5 15.5t-79.5 22.5t-61.5 43t-24.5 78.5q0 71 56 111.5t153 40.5h9q89 0 143 -41q52 -40 52 -98l-1 -18h-93v9q0 73 -113 73q-91 0 -108 -45q-4 -12 -4 -22q0 -28 24.5 -42
t61.5 -22t79.5 -15.5t79.5 -23.5q86 -36 86 -122q0 -87 -63 -128q-56 -36 -154 -36h-15q-102 0 -157 46q-51 42 -51 102z" />
    <glyph glyph-name="t" unicode="t" horiz-adv-x="346" 
d="M250 63q26 0 62 15v-70q-36 -18 -93 -18q-58 0 -89 34t-31 112v300h-56v75h59l32 163h59v-163h119v-75h-119v-305q0 -57 36 -65q10 -3 21 -3z" />
    <glyph glyph-name="u" unicode="u" horiz-adv-x="618" 
d="M583 10q-30 -20 -63 -20q-34 0 -50.5 7t-27.5 19q-19 21 -21 58q-39 -57 -111 -77q-24 -7 -56 -7q-33 0 -66 10.5t-58 31.5q-52 47 -52 135v344h94v-327q0 -65 30 -92t78 -27q54 0 95 41t41 101v304h94v-411q0 -19 8.5 -27t19.5 -8q23 0 45 14v-69z" />
    <glyph glyph-name="v" unicode="v" horiz-adv-x="512" 
d="M306 0h-100l-194 511h100l146 -391h4l146 391h92z" />
    <glyph glyph-name="w" unicode="w" horiz-adv-x="811" 
d="M402 357l-116 -357h-98l-168 511h97l119 -374h4l121 374h92l119 -374h4l121 374h92l-167 -511h-98l-118 357h-4z" />
    <glyph glyph-name="x" unicode="x" horiz-adv-x="519" 
d="M18 0l188 259l-178 252h112l123 -174l126 174h103l-179 -246l188 -265h-112l-133 187l-135 -187h-103z" />
    <glyph glyph-name="y" unicode="y" horiz-adv-x="512" 
d="M47 -95q31 -14 50 -14t32 3.5t27 15.5q34 29 55 95l-199 506h100l147 -377h4l145 377h92l-191 -491q-42 -103 -70 -138t-56 -51.5t-66 -16.5q-39 0 -70 14v77z" />
    <glyph glyph-name="z" unicode="z" horiz-adv-x="463" 
d="M36 0v38l249 398h-234v75h364v-37l-250 -399h258v-75h-387z" />
    <glyph glyph-name="braceleft" unicode="{" horiz-adv-x="315" 
d="M40 303q51 0 70 30q7 11 7 27v186q0 118 99 135q28 5 59 5v-50q-34 0 -49 -11q-30 -22 -30 -65q0 -44 -2.5 -92t-4.5 -97t-21 -76t-68 -27v-9q49 0 68 -27t21 -76t4.5 -97t2.5 -83q0 -36 7.5 -49.5t18.5 -21.5q19 -14 53 -14v-50q-73 0 -110 25q-48 33 -48 115v186
q0 28 -25 44q-20 13 -52 13v79z" />
    <glyph glyph-name="bar" unicode="|" horiz-adv-x="248" 
d="M84 -199v920h80v-920h-80z" />
    <glyph glyph-name="braceright" unicode="}" horiz-adv-x="315" 
d="M275 224q-50 0 -70 -30q-7 -11 -7 -27v-186q0 -118 -98 -135q-29 -5 -60 -5v50q34 0 49 11q30 22 30 66q0 43 2.5 91t4.5 97t21 76t68 27v9q-49 0 -68 27t-21 76t-4.5 97t-2.5 84q0 35 -7.5 48.5t-18.5 21.5q-19 14 -53 14v50q73 0 110 -25q48 -33 48 -115v-186
q0 -43 50 -54q13 -3 27 -3v-79z" />
    <glyph glyph-name="asciitilde" unicode="~" horiz-adv-x="689" 
d="M628 301q-38 -42 -98 -66q-30 -12 -63 -12q-34 0 -62.5 10.5t-57 22.5t-58 22.5t-63.5 10.5q-55 0 -116 -39q-26 -18 -46 -39v85q20 21 44 37q62 41 119 41q32 0 60.5 -10.5t57 -22.5t58 -22.5t63.5 -10.5q59 0 116 39q26 17 46 39v-85z" />
    <glyph glyph-name="uni00A0" unicode="&#xa0;" horiz-adv-x="244" 
 />
    <glyph glyph-name="exclamdown" unicode="&#xa1;" horiz-adv-x="254" 
d="M76 510h101v-111h-101v111zM160 335q2 -30 24 -511h-115l25 511h66z" />
    <glyph glyph-name="cent" unicode="&#xa2;" horiz-adv-x="527" 
d="M492 288q0 -92 -53 -148q-51 -55 -136 -61l11 -86h-73l10 86q-90 6 -146 72q-57 68 -57 180v24q0 112 57 181q55 66 146 72l-10 85h73l-11 -85q132 -13 175 -128q14 -37 14 -82h-93q0 94 -69 126q-24 10 -53 10q-30 0 -54.5 -10t-42.5 -30q-38 -41 -38 -115v-54
q0 -89 37 -130.5t101 -41.5q63 0 92.5 38t29.5 97h90z" />
    <glyph glyph-name="sterling" unicode="&#xa3;" horiz-adv-x="597" 
d="M29 382h126v117q0 95 59 147q55 50 144 50h9q138 0 183 -111q15 -37 15 -86v-9h-98v15q0 45 -30.5 73.5t-76.5 28.5q-47 0 -77 -27.5t-30 -74.5v-123h187v-89h-187l-17 -204h303v-89h-474v89h90v204h-126v89z" />
    <glyph glyph-name="currency" unicode="&#xa4;" horiz-adv-x="624" 
d="M115 186q-51 68 -51 150q0 81 50 151l-51 52l48 48l51 -52q70 50 151 50t150 -52l54 54l48 -48l-54 -54q49 -68 49 -148q0 -82 -51 -150l55 -54l-48 -48l-55 54q-67 -50 -149 -50q-81 0 -149 49l-53 -53l-48 48zM133 337q0 -74 52.5 -126.5t126.5 -52.5t126.5 52.5
t52.5 126.5t-52.5 126.5t-126.5 52.5t-126.5 -52.5t-52.5 -126.5z" />
    <glyph glyph-name="yen" unicode="&#xa5;" horiz-adv-x="634" 
d="M59 440h108l-141 246h112l183 -319h4l181 319h101l-141 -246h111v-64h-148l-41 -73h189v-64h-211v-239h-98v239h-209v64h187l-42 73h-145v64z" />
    <glyph glyph-name="brokenbar" unicode="&#xa6;" horiz-adv-x="269" 
d="M90 266h89v-266h-89v266zM90 686h89v-267h-89v267z" />
    <glyph glyph-name="section" unicode="&#xa7;" horiz-adv-x="514" 
d="M38 262q0 99 85 150q-32 23 -52.5 54t-20.5 78q0 71 56 111.5t153 40.5h9q89 0 143 -41q52 -40 52 -98l-1 -18h-93v9q0 73 -113 73q-91 0 -108 -45q-4 -12 -4 -22q0 -35 24.5 -58t61.5 -41.5t79.5 -35.5t79.5 -39q86 -51 86 -132q0 -98 -86 -150q74 -53 74 -128
t-56 -115.5t-153 -40.5h-9q-89 0 -143 41q-52 40 -52 98l1 18h93v-9q0 -73 113 -73q91 0 107 45q5 12 5 22q0 35 -24.5 58t-61.5 41.5t-79.5 35.5t-79.5 39q-86 51 -86 132zM324 134q58 39 58 88q0 52 -62 91q-28 17 -62.5 31.5t-68.5 30.5q-19 -11 -38.5 -32.5t-19.5 -53.5
t17.5 -54t45 -39t62 -31.5t68.5 -30.5z" />
    <glyph glyph-name="dieresis" unicode="&#xa8;" horiz-adv-x="440" 
d="M81 731h90v-98h-90v98zM269 731h91v-98h-91v98z" />
    <glyph glyph-name="copyright" unicode="&#xa9;" horiz-adv-x="780" 
d="M491 401q0 47 -31 74q-27 24 -67 24q-71 0 -97 -55q-8 -18 -8 -43v-115q0 -50 33 -76q29 -23 73 -23q43 0 71 28t28 81h65q0 -82 -47 -126q-45 -41 -115 -41h-5q-74 0 -120 42q-50 46 -50 129v86q0 82 50 128q46 42 119 42h5q114 0 151 -93q12 -32 12 -75h-67v13z
M716 481q28 -64 28 -137q0 -74 -28 -138.5t-76 -112.5t-112.5 -75.5t-137.5 -27.5q-74 0 -138.5 27.5t-112.5 75.5t-75.5 112.5t-27.5 138.5q0 73 27.5 137t75.5 112t112.5 75.5t138.5 27.5q73 0 137.5 -27.5t112.5 -75.5t76 -112zM703 343q0 67 -24 124t-67 99
q-90 89 -222 89q-135 0 -224 -89q-90 -90 -90 -222q0 -135 90 -225q89 -89 224 -89q132 0 222 89q91 89 91 224z" />
    <glyph glyph-name="ordfeminine" unicode="&#xaa;" horiz-adv-x="415" 
d="M263 522q-71 0 -111 -11t-40 -46q0 -26 16 -36t49 -10q32 0 59 23.5t27 66.5v13zM157 373q-102 0 -102 89q0 65 57 86q46 18 151 18v28q0 56 -71 56q-42 0 -60 -21q-10 -11 -10 -27v-8h-55q-2 8 -2 14q0 40 36 64t92 24h5q122 0 122 -95v-161q0 -11 5.5 -16t12.5 -5t27 8
v-42q-24 -12 -46 -12q-49 0 -54 56q-37 -56 -108 -56z" />
    <glyph glyph-name="guillemotleft" unicode="&#xab;" horiz-adv-x="460" 
d="M354 163l-123 174l123 174h50l-93 -174l93 -174h-50zM171 163l-122 174l122 174h51l-94 -174l94 -174h-51z" />
    <glyph glyph-name="logicalnot" unicode="&#xac;" horiz-adv-x="617" 
d="M556 174h-84v186h-435v93h519v-279z" />
    <glyph glyph-name="uni00AD" unicode="&#xad;" horiz-adv-x="391" 
d="M69 319h253v-98h-253v98z" />
    <glyph glyph-name="registered" unicode="&#xae;" horiz-adv-x="780" 
d="M716 481q28 -64 28 -137q0 -74 -28 -138.5t-76 -112.5t-112.5 -75.5t-137.5 -27.5q-74 0 -138.5 27.5t-112.5 75.5t-75.5 112.5t-27.5 138.5q0 73 27.5 137t75.5 112t112.5 75.5t138.5 27.5q73 0 137.5 -27.5t112.5 -75.5t76 -112zM704 344q0 67 -24 124t-66 99
q-91 89 -224 89q-135 0 -224 -89q-90 -90 -90 -223q0 -135 90 -225q89 -89 224 -89q133 0 224 89q90 89 90 225zM571 138q-15 -6 -30 -6q-16 0 -27 3t-20 12q-18 20 -18 58q0 37 -6.5 57.5t-15.5 33.5q-18 23 -45 23h-99v-184h-64v412h187q45 0 79 -29q35 -29 35 -69
t-20.5 -66t-46.5 -36q40 -16 54 -71q6 -21 6 -48t4 -45.5t27 -26.5v-18zM484 435q0 24 -18.5 40.5t-44.5 16.5h-111v-119h111q26 0 44.5 17t18.5 41v4z" />
    <glyph glyph-name="macron" unicode="&#xaf;" horiz-adv-x="460" 
d="M71 662v74h318v-74h-318z" />
    <glyph glyph-name="degree" unicode="&#xb0;" horiz-adv-x="394" 
d="M347 546q0 -63 -45 -106q-45 -44 -105 -44t-105 44q-45 43 -45 106q0 60 44 106q43 44 106 44q61 0 105.5 -44.5t44.5 -105.5zM290 545q0 38 -28 64q-27 26 -66 26q-38 0 -66 -26q-27 -26 -27 -64t27 -64q28 -26 67 -26q38 0 65 26q28 26 28 64z" />
    <glyph glyph-name="plusminus" unicode="&#xb1;" 
d="M55 0v83h503v-83h-503zM348 364h215v-84h-215v-146h-83v146h-214v84h214v147h83v-147z" />
    <glyph glyph-name="twosuperior" unicode="&#xb2;" horiz-adv-x="384" 
d="M61 430q0 51 37 85q8 8 14 13l110 82q43 31 43 78q0 38 -35 56q-14 7 -39 7t-41 -10.5t-24 -23.5q-11 -20 -11 -39v-14h-53q-1 5 -1 11q0 5 3 25.5t16 42.5q35 57 115 57q63 0 97 -38q27 -32 27 -68t-12.5 -63t-55.5 -59l-105 -80q-26 -20 -26 -26h200v-49h-259v13z" />
    <glyph glyph-name="threesuperior" unicode="&#xb3;" horiz-adv-x="363" 
d="M242 613q69 -25 69 -94q0 -49 -37 -78t-94 -29h-7q-63 0 -97 30.5t-34 81.5v4h54v-6q0 -61 78 -61q38 0 60.5 15.5t22.5 49.5q0 33 -26 46t-59 13h-41v49h42q31 0 53 15t22 46q0 30 -21.5 43t-50.5 13q-30 0 -50.5 -14.5t-20.5 -43.5v-5h-54v10q0 47 35 74.5t89 27.5h5
q52 0 87 -27.5t35 -74.5q0 -57 -60 -85z" />
    <glyph glyph-name="acute" unicode="&#xb4;" horiz-adv-x="333" 
d="M68 575l94 145h90l1 -3l-116 -142h-69z" />
    <glyph glyph-name="mu" unicode="&#xb5;" horiz-adv-x="612" 
d="M587 10q-30 -20 -63 -20q-34 0 -50.5 7t-27.5 19q-19 21 -21 58q-39 -57 -111 -77q-24 -7 -50 -7q-53 0 -94 25l6 -47v-129h-94v672h94v-327q0 -65 30 -92t78 -27q54 0 95 41t41 101v304h94v-411q0 -19 8.5 -27t19.5 -8q23 0 45 14v-69z" />
    <glyph glyph-name="paragraph" unicode="&#xb6;" horiz-adv-x="524" 
d="M217 250q-82 10 -137 71t-55 146q0 90 63 155q63 64 155 64h238v-61h-66v-794h-63v794h-72v-794h-63v419z" />
    <glyph glyph-name="periodcentered" unicode="&#xb7;" horiz-adv-x="239" 
d="M69 344h101v-112h-101v112z" />
    <glyph glyph-name="cedilla" unicode="&#xb8;" horiz-adv-x="350" 
d="M169 -17q111 0 111 -89q0 -49 -41 -73q-31 -18 -64 -18q-65 0 -105 22l9 49q40 -20 73 -20q66 0 66 45q0 20 -15.5 30.5t-36.5 10.5h-21v43h24z" />
    <glyph glyph-name="onesuperior" unicode="&#xb9;" horiz-adv-x="334" 
d="M50 759q56 4 132 37h21v-325h81v-49h-234v49h99v253h-99v35z" />
    <glyph glyph-name="ordmasculine" unicode="&#xba;" horiz-adv-x="392" 
d="M282 540q0 59 -25.5 84.5t-60.5 25.5t-60.5 -25.5t-25.5 -84.5v-11q0 -59 25.5 -84.5t60.5 -25.5t60.5 25.5t25.5 84.5v11zM339 523q0 -74 -41 -113q-39 -37 -102 -37t-102 37q-41 39 -41 113v23q0 74 41 114q39 36 102 36t102 -36q41 -40 41 -114v-23z" />
    <glyph glyph-name="guillemotright" unicode="&#xbb;" horiz-adv-x="460" 
d="M56 163l94 174l-94 174h51l123 -174l-123 -174h-51zM239 163l93 174l-93 174h50l122 -174l-122 -174h-50z" />
    <glyph glyph-name="onequarter" unicode="&#xbc;" horiz-adv-x="702" 
d="M198 0h-55l420 686h52zM36 647q56 4 132 37h21v-325h81v-49h-234v49h99v253h-99v35zM402 141q75 114 115 233h55q-17 -64 -48 -120q-48 -87 -72 -114h123v105q18 37 29 74h25v-179h46v-49h-46v-91h-54v91h-173v50z" />
    <glyph glyph-name="onehalf" unicode="&#xbd;" horiz-adv-x="726" 
d="M178 0h-55l420 686h52zM33 647q56 4 132 37h21v-325h81v-49h-234v49h99v253h-99v35zM437 13q0 51 37 85q8 8 14 13l110 82q43 31 43 78q0 38 -35 56q-14 7 -39 7t-41 -10.5t-24 -23.5q-11 -20 -11 -39v-14h-53q-1 5 -1 11q0 5 3 25.5t16 42.5q35 57 115 57q63 0 97 -39
q27 -31 27 -67t-12.5 -63t-55.5 -59l-105 -80q-26 -19 -26 -26h200v-49h-259v13z" />
    <glyph glyph-name="threequarters" unicode="&#xbe;" horiz-adv-x="698" 
d="M198 0h-55l420 686h52zM397 141q75 114 115 233h55q-17 -64 -48 -120q-48 -87 -72 -114h123v105q18 37 29 74h25v-179h46v-49h-46v-91h-54v91h-173v50zM231 499q69 -25 69 -94q0 -49 -37 -78t-94 -29h-7q-63 0 -97 30.5t-34 81.5v4h54v-6q0 -61 78 -61q38 0 60.5 15.5
t22.5 49.5q0 33 -26 46t-59 13h-41v49h42q31 0 53 15t22 46q0 30 -21.5 43t-50.5 13q-30 0 -50.5 -14.5t-20.5 -43.5v-5h-54v10q0 47 35 74.5t89 27.5h5q52 0 87 -27.5t35 -74.5q0 -57 -60 -85z" />
    <glyph glyph-name="questiondown" unicode="&#xbf;" horiz-adv-x="495" 
d="M292 400h-104v111h104v-111zM468 53q3 -12 3 -38t-10.5 -61t-36.5 -66q-60 -73 -173 -73h-6q-112 0 -169 75q-23 31 -32 64t-9 66q0 32 11.5 62t28.5 52t37.5 38t37.5 31.5t28.5 32.5t11.5 41v49h100v-64q0 -47 -40 -89q-18 -18 -38 -34t-38 -34q-40 -42 -40 -92
q0 -40 26 -71q33 -38 92 -38q67 0 99 44q21 29 21 68l-2 37h98z" />
    <glyph glyph-name="Agrave" unicode="&#xc0;" horiz-adv-x="652" 
d="M484 149h-328l-57 -149h-95l268 686h108l268 -686h-106zM318 568l-127 -330h259l-126 330h-6zM290 750l-115 142l1 3h89l95 -145h-70z" />
    <glyph glyph-name="Aacute" unicode="&#xc1;" horiz-adv-x="652" 
d="M484 149h-328l-57 -149h-95l268 686h108l268 -686h-106zM318 568l-127 -330h259l-126 330h-6zM292 750l94 145h90l1 -3l-116 -142h-69z" />
    <glyph glyph-name="Acircumflex" unicode="&#xc2;" horiz-adv-x="652" 
d="M484 149h-328l-57 -149h-95l268 686h108l268 -686h-106zM318 568l-127 -330h259l-126 330h-6zM285 895h78l135 -145h-80l-94 89l-95 -89h-80z" />
    <glyph glyph-name="Atilde" unicode="&#xc3;" horiz-adv-x="652" 
d="M484 149h-328l-57 -149h-95l268 686h108l268 -686h-106zM318 568l-127 -330h259l-126 330h-6zM517 854q0 -41 -27 -70q-30 -34 -85 -34q-30 0 -69.5 11.5t-59.5 17t-40 5.5q-45 0 -55 -34h-50q0 65 63 94q21 10 48 10q26 0 47.5 -5.5t42.5 -12.5q55 -17 80 -17
q44 0 55 35h50z" />
    <glyph glyph-name="Adieresis" unicode="&#xc4;" horiz-adv-x="652" 
d="M484 149h-328l-57 -149h-95l268 686h108l268 -686h-106zM318 568l-127 -330h259l-126 330h-6zM184 847h90v-98h-90v98zM372 847h91v-98h-91v98z" />
    <glyph glyph-name="Aring" unicode="&#xc5;" horiz-adv-x="652" 
d="M484 149h-328l-57 -149h-95l268 686h108l268 -686h-106zM318 568l-127 -330h259l-126 330h-6zM427 825q0 -41 -29.5 -70.5t-71.5 -29.5q-41 0 -71 29q-30 28 -30 71q0 42 29.5 71.5t71.5 29.5q40 0 71 -30q30 -28 30 -71zM365.5 787.5q16.5 15.5 16.5 38.5
q0 22 -16.5 37.5t-39.5 15.5t-39.5 -15.5t-16.5 -38.5t16.5 -38t39.5 -15t39.5 15.5z" />
    <glyph glyph-name="AE" unicode="&#xc6;" horiz-adv-x="983" 
d="M507 149h-328l-78 -149h-94l364 686h561l-13 -89h-418l50 -202h336v-89h-314l54 -217h298l14 -89h-395zM400 568l-173 -330h259l-80 330h-6z" />
    <glyph glyph-name="Ccedilla" unicode="&#xc7;" horiz-adv-x="663" 
d="M609 261q0 -133 -79 -205q-71 -66 -186 -66q-128 0 -202 76q-80 81 -80 232v90q0 150 80 232q75 76 202 76q117 0 188 -68q77 -72 77 -205h-98q0 92 -47 141q-43 43 -120 43q-132 0 -170 -119q-14 -42 -14 -100v-90q0 -166 109 -206q34 -13 73 -13t70.5 10.5t53.5 32.5
q49 49 49 139h94zM338 -17q111 0 111 -89q0 -49 -41 -73q-31 -18 -64 -18q-65 0 -105 22l9 49q40 -20 72 -20q67 0 67 45q0 20 -15.5 30.5t-36.5 10.5h-21v43h24z" />
    <glyph glyph-name="Egrave" unicode="&#xc8;" horiz-adv-x="593" 
d="M92 0v686h450l-13 -89h-339v-202h307v-89h-307v-217h345l14 -89h-457zM295 750l-115 142l1 3h89l95 -145h-70z" />
    <glyph glyph-name="Eacute" unicode="&#xc9;" horiz-adv-x="593" 
d="M92 0v686h450l-13 -89h-339v-202h307v-89h-307v-217h345l14 -89h-457zM284 750l94 145h90l1 -3l-116 -142h-69z" />
    <glyph glyph-name="Ecircumflex" unicode="&#xca;" horiz-adv-x="593" 
d="M92 0v686h450l-13 -89h-339v-202h307v-89h-307v-217h345l14 -89h-457zM276 895h78l135 -145h-80l-94 89l-95 -89h-80z" />
    <glyph glyph-name="Edieresis" unicode="&#xcb;" horiz-adv-x="593" 
d="M92 0v686h450l-13 -89h-339v-202h307v-89h-307v-217h345l14 -89h-457zM178 848h90v-98h-90v98zM366 848h91v-98h-91v98z" />
    <glyph glyph-name="Igrave" unicode="&#xcc;" horiz-adv-x="364" 
d="M53 686h258v-89h-80v-508h80v-89h-258v89h80v508h-80v89zM147 750l-115 142l1 3h89l95 -145h-70z" />
    <glyph glyph-name="Iacute" unicode="&#xcd;" horiz-adv-x="364" 
d="M53 686h258v-89h-80v-508h80v-89h-258v89h80v508h-80v89zM144 750l94 145h90l1 -3l-116 -142h-69z" />
    <glyph glyph-name="Icircumflex" unicode="&#xce;" horiz-adv-x="364" 
d="M53 686h258v-89h-80v-508h80v-89h-258v89h80v508h-80v89zM144 895h78l135 -145h-80l-94 89l-95 -89h-80z" />
    <glyph glyph-name="Idieresis" unicode="&#xcf;" horiz-adv-x="364" 
d="M53 686h258v-89h-80v-508h80v-89h-258v89h80v508h-80v89zM43 848h90v-98h-90v98zM231 848h91v-98h-91v98z" />
    <glyph glyph-name="Eth" unicode="&#xd0;" horiz-adv-x="681" 
d="M5 375h93v311h238q124 0 200 -76q84 -82 84 -232v-70q0 -150 -84 -232q-76 -76 -200 -76h-238v310h-93v65zM336 89q132 0 172 119q14 41 14 100v70q0 166 -112 206q-34 13 -74 13h-140v-222h145v-65h-145v-221h140z" />
    <glyph glyph-name="Ntilde" unicode="&#xd1;" horiz-adv-x="694" 
d="M519 0l-335 502l-3 -1v-501h-89v686h86l332 -496l3 1v495h89v-686h-83zM541 854q0 -41 -27 -70q-30 -34 -85 -34q-30 0 -69.5 11.5t-59.5 17t-40 5.5q-45 0 -55 -34h-50q0 65 63 94q21 10 48 10q26 0 47.5 -5.5t42.5 -12.5q55 -17 80 -17q44 0 55 35h50z" />
    <glyph glyph-name="Ograve" unicode="&#xd2;" horiz-adv-x="690" 
d="M531 388q0 166 -111 206q-35 13 -75 13q-41 0 -75 -12.5t-58 -38.5q-53 -56 -53 -168v-90q0 -166 111 -206q34 -13 75 -13q40 0 74.5 12.5t58.5 38.5q53 56 53 168v90zM629 298q0 -150 -83 -232q-78 -76 -201 -76t-201 76q-83 82 -83 232v90q0 150 83 232q78 76 201 76
t201 -76q83 -82 83 -232v-90zM313 750l-115 142l1 3h89l95 -145h-70z" />
    <glyph glyph-name="Oacute" unicode="&#xd3;" horiz-adv-x="690" 
d="M531 388q0 166 -111 206q-35 13 -75 13q-41 0 -75 -12.5t-58 -38.5q-53 -56 -53 -168v-90q0 -166 111 -206q34 -13 75 -13q40 0 74.5 12.5t58.5 38.5q53 56 53 168v90zM629 298q0 -150 -83 -232q-78 -76 -201 -76t-201 76q-83 82 -83 232v90q0 150 83 232q78 76 201 76
t201 -76q83 -82 83 -232v-90zM306 750l94 145h90l1 -3l-116 -142h-69z" />
    <glyph glyph-name="Ocircumflex" unicode="&#xd4;" horiz-adv-x="690" 
d="M531 388q0 166 -111 206q-35 13 -75 13q-41 0 -75 -12.5t-58 -38.5q-53 -56 -53 -168v-90q0 -166 111 -206q34 -13 75 -13q40 0 74.5 12.5t58.5 38.5q53 56 53 168v90zM629 298q0 -150 -83 -232q-78 -76 -201 -76t-201 76q-83 82 -83 232v90q0 150 83 232q78 76 201 76
t201 -76q83 -82 83 -232v-90zM304 895h78l135 -145h-80l-94 89l-95 -89h-80z" />
    <glyph glyph-name="Otilde" unicode="&#xd5;" horiz-adv-x="690" 
d="M531 388q0 166 -111 206q-35 13 -75 13q-41 0 -75 -12.5t-58 -38.5q-53 -56 -53 -168v-90q0 -166 111 -206q34 -13 75 -13q40 0 74.5 12.5t58.5 38.5q53 56 53 168v90zM629 298q0 -150 -83 -232q-78 -76 -201 -76t-201 76q-83 82 -83 232v90q0 150 83 232q78 76 201 76
t201 -76q83 -82 83 -232v-90zM538 854q0 -41 -26 -70q-31 -34 -86 -34q-30 0 -69.5 11.5t-59.5 17t-40 5.5q-45 0 -55 -34h-50q0 65 62 94q22 10 49 10q26 0 47.5 -5.5t41.5 -12.5q56 -17 81 -17q44 0 55 35h50z" />
    <glyph glyph-name="Odieresis" unicode="&#xd6;" horiz-adv-x="690" 
d="M531 388q0 166 -111 206q-35 13 -75 13q-41 0 -75 -12.5t-58 -38.5q-53 -56 -53 -168v-90q0 -166 111 -206q34 -13 75 -13q40 0 74.5 12.5t58.5 38.5q53 56 53 168v90zM629 298q0 -150 -83 -232q-78 -76 -201 -76t-201 76q-83 82 -83 232v90q0 150 83 232q78 76 201 76
t201 -76q83 -82 83 -232v-90zM207 848h90v-98h-90v98zM395 848h91v-98h-91v98z" />
    <glyph glyph-name="multiply" unicode="&#xd7;" 
d="M99 407l55 59l154 -152l153 152l55 -59l-153 -152l153 -151l-55 -59l-153 150l-154 -150l-55 59l153 151z" />
    <glyph glyph-name="Oslash" unicode="&#xd8;" horiz-adv-x="690" 
d="M345 696q90 0 156 -41l59 99h64l-80 -133q85 -81 85 -233v-90q0 -150 -83 -232q-78 -76 -201 -76q-88 0 -155 40l-56 -95h-64l77 128q-86 82 -86 235v90q0 150 83 232q78 76 201 76zM159 298q0 -98 38 -151l257 430q-45 30 -97 30q-53 0 -87 -12.5t-58 -38.5
q-53 -56 -53 -168v-90zM237 108q44 -29 96 -29t86.5 12.5t58.5 38.5q53 56 53 168v90q0 92 -37 149z" />
    <glyph glyph-name="Ugrave" unicode="&#xd9;" horiz-adv-x="680" 
d="M594 686v-467q0 -104 -68 -167q-68 -62 -180 -62h-13q-112 0 -179 62q-68 62 -68 167v467h98v-465q0 -62 42 -101q45 -41 116 -41t112.5 39.5t41.5 102.5v465h98zM313 750l-115 142l1 3h89l95 -145h-70z" />
    <glyph glyph-name="Uacute" unicode="&#xda;" horiz-adv-x="680" 
d="M594 686v-467q0 -104 -68 -167q-68 -62 -180 -62h-13q-112 0 -179 62q-68 62 -68 167v467h98v-465q0 -62 42 -101q45 -41 116 -41t112.5 39.5t41.5 102.5v465h98zM304 750l94 145h90l1 -3l-116 -142h-69z" />
    <glyph glyph-name="Ucircumflex" unicode="&#xdb;" horiz-adv-x="680" 
d="M594 686v-467q0 -104 -68 -167q-68 -62 -180 -62h-13q-112 0 -179 62q-68 62 -68 167v467h98v-465q0 -62 42 -101q45 -41 116 -41t112.5 39.5t41.5 102.5v465h98zM301 895h78l135 -145h-80l-94 89l-95 -89h-80z" />
    <glyph glyph-name="Udieresis" unicode="&#xdc;" horiz-adv-x="680" 
d="M594 686v-467q0 -104 -68 -167q-68 -62 -180 -62h-13q-112 0 -179 62q-68 62 -68 167v467h98v-465q0 -62 42 -101q45 -41 116 -41t112.5 39.5t41.5 102.5v465h98zM201 848h90v-98h-90v98zM389 848h91v-98h-91v98z" />
    <glyph glyph-name="Yacute" unicode="&#xdd;" horiz-adv-x="572" 
d="M335 265v-265h-98v265l-242 421h112l183 -319h4l181 319h101zM259 750l94 145h90l1 -3l-116 -142h-69z" />
    <glyph glyph-name="Thorn" unicode="&#xde;" horiz-adv-x="633" 
d="M190 162v-162h-98v686h98v-124h198q87 0 145 -54q60 -57 60 -146t-60 -146q-58 -54 -145 -54h-198zM190 473v-222h189q47 0 82 33q34 32 34 78t-33 78q-35 33 -83 33h-189z" />
    <glyph glyph-name="germandbls" unicode="&#xdf;" horiz-adv-x="614" 
d="M565 200q0 -38 -17.5 -76.5t-47.5 -65.5q-63 -58 -158 -58h-83v75h73q60 0 98 40q41 42 41 99q0 54 -41 93q-40 39 -98 39h-73v74h65q52 0 88 34q36 35 36 86q0 50 -32 81.5t-89 31.5t-93 -38.5t-36 -101.5v-579h-94v502h-58v75h58q2 100 67 159q64 58 160 58
q90 0 149 -49q62 -53 62 -136q0 -50 -28 -92.5t-72 -59.5l2 -4q53 -20 87 -69.5t34 -117.5z" />
    <glyph glyph-name="agrave" unicode="&#xe0;" horiz-adv-x="585" 
d="M390 234q-128 0 -171 -13.5t-60 -32t-17 -54.5q0 -69 105 -69q56 0 99 39q44 41 44 110v20zM394 82q-61 -92 -179 -92q-116 0 -153 72q-14 29 -14 80t25 84.5t70 51.5q72 29 247 29v47q0 39 -14 56q-31 36 -103 36q-70 0 -98 -34q-16 -20 -16 -46v-12h-92q-2 10 -2 33
q0 22 16 49t44 46q60 39 150 39h9q102 0 151 -40.5t49 -115.5v-265q0 -19 8.5 -27t19.5 -8q24 0 46 14v-69q-33 -20 -77 -20q-45 0 -65 26t-22 66zM244 575l-115 142l1 3h89l95 -145h-70z" />
    <glyph glyph-name="aacute" unicode="&#xe1;" horiz-adv-x="585" 
d="M390 234q-128 0 -171 -13.5t-60 -32t-17 -54.5q0 -69 105 -69q56 0 99 39q44 41 44 110v20zM394 82q-61 -92 -179 -92q-116 0 -153 72q-14 29 -14 80t25 84.5t70 51.5q72 29 247 29v47q0 39 -14 56q-31 36 -103 36q-70 0 -98 -34q-16 -20 -16 -46v-12h-92q-2 10 -2 33
q0 22 16 49t44 46q60 39 150 39h9q102 0 151 -40.5t49 -115.5v-265q0 -19 8.5 -27t19.5 -8q24 0 46 14v-69q-33 -20 -77 -20q-45 0 -65 26t-22 66zM246 575l94 145h90l1 -3l-116 -142h-69z" />
    <glyph glyph-name="acircumflex" unicode="&#xe2;" horiz-adv-x="585" 
d="M390 234q-128 0 -171 -13.5t-60 -32t-17 -54.5q0 -69 105 -69q56 0 99 39q44 41 44 110v20zM394 82q-61 -92 -179 -92q-116 0 -153 72q-14 29 -14 80t25 84.5t70 51.5q72 29 247 29v47q0 39 -14 56q-31 36 -103 36q-70 0 -98 -34q-16 -20 -16 -46v-12h-92q-2 10 -2 33
q0 22 16 49t44 46q60 39 150 39h9q102 0 151 -40.5t49 -115.5v-265q0 -19 8.5 -27t19.5 -8q24 0 46 14v-69q-33 -20 -77 -20q-45 0 -65 26t-22 66zM239 720h78l135 -145h-80l-94 89l-95 -89h-80z" />
    <glyph glyph-name="atilde" unicode="&#xe3;" horiz-adv-x="585" 
d="M390 234q-128 0 -171 -13.5t-60 -32t-17 -54.5q0 -69 105 -69q56 0 99 39q44 41 44 110v20zM394 82q-61 -92 -179 -92q-116 0 -153 72q-14 29 -14 80t25 84.5t70 51.5q72 29 247 29v47q0 39 -14 56q-31 36 -103 36q-70 0 -98 -34q-16 -20 -16 -46v-12h-92q-2 10 -2 33
q0 22 16 49t44 46q60 39 150 39h9q102 0 151 -40.5t49 -115.5v-265q0 -19 8.5 -27t19.5 -8q24 0 46 14v-69q-33 -20 -77 -20q-45 0 -65 26t-22 66zM471 720q0 -41 -27 -70q-30 -34 -85 -34q-30 0 -69.5 11.5t-59.5 17t-40 5.5q-45 0 -55 -34h-50q0 65 63 94q21 10 48 10
q26 0 47.5 -5.5t42.5 -12.5q55 -17 80 -17q44 0 55 35h50z" />
    <glyph glyph-name="adieresis" unicode="&#xe4;" horiz-adv-x="585" 
d="M390 234q-128 0 -171 -13.5t-60 -32t-17 -54.5q0 -69 105 -69q56 0 99 39q44 41 44 110v20zM394 82q-61 -92 -179 -92q-116 0 -153 72q-14 29 -14 80t25 84.5t70 51.5q72 29 247 29v47q0 39 -14 56q-31 36 -103 36q-70 0 -98 -34q-16 -20 -16 -46v-12h-92q-2 10 -2 33
q0 22 16 49t44 46q60 39 150 39h9q102 0 151 -40.5t49 -115.5v-265q0 -19 8.5 -27t19.5 -8q24 0 46 14v-69q-33 -20 -77 -20q-45 0 -65 26t-22 66zM136 720h90v-98h-90v98zM324 720h91v-98h-91v98z" />
    <glyph glyph-name="aring" unicode="&#xe5;" horiz-adv-x="585" 
d="M390 234q-128 0 -171 -13.5t-60 -32t-17 -54.5q0 -69 105 -69q56 0 99 39q44 41 44 110v20zM394 82q-61 -92 -179 -92q-116 0 -153 72q-14 29 -14 80t25 84.5t70 51.5q72 29 247 29v47q0 39 -14 56q-31 36 -103 36q-70 0 -98 -34q-16 -20 -16 -46v-12h-92q-2 10 -2 33
q0 22 16 49t44 46q60 39 150 39h9q102 0 151 -40.5t49 -115.5v-265q0 -19 8.5 -27t19.5 -8q24 0 46 14v-69q-33 -20 -77 -20q-45 0 -65 26t-22 66zM378 656q0 -41 -29.5 -70.5t-71.5 -29.5q-41 0 -71 28q-30 29 -30 72q0 42 29.5 71.5t71.5 29.5q40 0 71 -29q30 -29 30 -72z
M316.5 618.5q16.5 15.5 16.5 38.5q0 22 -16.5 37.5t-39.5 15.5t-39.5 -15.5t-16.5 -38.5t16.5 -38t39.5 -15t39.5 15.5z" />
    <glyph glyph-name="ae" unicode="&#xe6;" horiz-adv-x="895" 
d="M457 457q60 64 163 64h7q95 0 155 -58q59 -58 59 -158v-71h-357q3 -118 79 -156q26 -13 66 -13q39 0 64 15t38 35q21 32 21 75h89q0 -91 -61 -146q-59 -54 -153 -54h-4q-67 0 -118.5 28.5t-81.5 82.5q-34 -54 -91 -82.5t-117 -28.5q-116 0 -153 72q-14 29 -14 80t25 84.5
t70 51.5q72 29 247 29v47q0 39 -14 56q-31 36 -103 36q-70 0 -98 -34q-16 -20 -16 -46v-12h-92q-2 10 -2 33q0 22 16 49t44 46q60 39 150 39h9q126 0 173 -64zM390 234q-128 0 -171 -13.5t-60 -32t-17 -54.5q0 -69 105 -69q56 0 99 39q44 41 44 110v20zM622 446
q-56 0 -92 -34.5t-44 -104.5h262v12q0 60 -37 95q-34 32 -89 32z" />
    <glyph glyph-name="ccedilla" unicode="&#xe7;" horiz-adv-x="544" 
d="M495 200q0 -99 -60 -156q-58 -54 -151 -54h-8q-101 0 -161 66q-64 69 -64 187v24q0 118 64 187q61 67 160 67h8q93 0 152.5 -57.5t59.5 -153.5h-93q0 94 -70 126q-23 10 -52 10q-30 0 -54.5 -10t-42.5 -30q-38 -41 -38 -115v-54q0 -89 37 -130.5t101 -41.5q63 0 92.5 38
t29.5 97h90zM278 -17q111 0 111 -89q0 -49 -41 -73q-31 -18 -64 -18q-65 0 -105 22l9 49q40 -20 72 -20q67 0 67 45q0 20 -15.5 30.5t-36.5 10.5h-21v43h24z" />
    <glyph glyph-name="egrave" unicode="&#xe8;" horiz-adv-x="556" 
d="M145 234q3 -118 79 -156q26 -13 66 -13q39 0 64 15t38 35q21 32 21 75h89q0 -91 -60 -146q-60 -54 -154 -54h-4q-105 0 -168 66q-65 70 -65 189v20q0 119 65 189q61 67 165 67h7q95 0 154 -58q60 -58 60 -158v-71h-357zM283 446q-56 0 -92 -34.5t-44 -104.5h262v12
q0 60 -37 95q-34 32 -89 32zM250 575l-115 142l1 3h89l95 -145h-70z" />
    <glyph glyph-name="eacute" unicode="&#xe9;" horiz-adv-x="556" 
d="M145 234q3 -118 79 -156q26 -13 66 -13q39 0 64 15t38 35q21 32 21 75h89q0 -91 -60 -146q-60 -54 -154 -54h-4q-105 0 -168 66q-65 70 -65 189v20q0 119 65 189q61 67 165 67h7q95 0 154 -58q60 -58 60 -158v-71h-357zM283 446q-56 0 -92 -34.5t-44 -104.5h262v12
q0 60 -37 95q-34 32 -89 32zM246 575l94 145h90l1 -3l-116 -142h-69z" />
    <glyph glyph-name="ecircumflex" unicode="&#xea;" horiz-adv-x="556" 
d="M145 234q3 -118 79 -156q26 -13 66 -13q39 0 64 15t38 35q21 32 21 75h89q0 -91 -60 -146q-60 -54 -154 -54h-4q-105 0 -168 66q-65 70 -65 189v20q0 119 65 189q61 67 165 67h7q95 0 154 -58q60 -58 60 -158v-71h-357zM283 446q-56 0 -92 -34.5t-44 -104.5h262v12
q0 60 -37 95q-34 32 -89 32zM244 720h78l135 -145h-80l-94 89l-95 -89h-80z" />
    <glyph glyph-name="edieresis" unicode="&#xeb;" horiz-adv-x="556" 
d="M145 234q3 -118 79 -156q26 -13 66 -13q39 0 64 15t38 35q21 32 21 75h89q0 -91 -60 -146q-60 -54 -154 -54h-4q-105 0 -168 66q-65 70 -65 189v20q0 119 65 189q61 67 165 67h7q95 0 154 -58q60 -58 60 -158v-71h-357zM283 446q-56 0 -92 -34.5t-44 -104.5h262v12
q0 60 -37 95q-34 32 -89 32zM143 720h90v-98h-90v98zM331 720h91v-98h-91v98z" />
    <glyph glyph-name="igrave" unicode="&#xec;" horiz-adv-x="260" 
d="M83 0v511h94v-511h-94zM106 575l-115 142l1 3h89l95 -145h-70z" />
    <glyph glyph-name="iacute" unicode="&#xed;" horiz-adv-x="260" 
d="M83 0v511h94v-511h-94zM85 575l94 145h90l1 -3l-116 -142h-69z" />
    <glyph glyph-name="icircumflex" unicode="&#xee;" horiz-adv-x="260" 
d="M83 0v511h94v-511h-94zM92 720h78l135 -145h-80l-94 89l-95 -89h-80z" />
    <glyph glyph-name="idieresis" unicode="&#xef;" horiz-adv-x="260" 
d="M83 0v511h94v-511h-94zM-9 720h90v-98h-90v98zM179 720h91v-98h-91v98z" />
    <glyph glyph-name="eth" unicode="&#xf0;" horiz-adv-x="575" 
d="M114 700l59 29q45 -23 95 -56l94 44q8 -9 16 -17t16 -17l-87 -40q149 -121 197 -259q18 -52 18 -110v-37q0 -121 -69 -187q-63 -60 -166 -60t-166 60q-69 66 -69 187v37q0 121 69 186q63 61 166 61q15 0 32 -3q-36 44 -83 87l-91 -43q-10 8 -18.5 16.5t-17.5 16.5
q46 22 94 44q-23 20 -48 35t-41 26zM428 265q0 92 -41 139q-36 42 -100 42q-99 0 -130 -98q-11 -35 -11 -83v-19q0 -92 41 -139q36 -42 100 -42q99 0 130 99q11 34 11 82v19z" />
    <glyph glyph-name="ntilde" unicode="&#xf1;" horiz-adv-x="593" 
d="M164 436q65 85 171 85q125 0 166 -97q14 -34 14 -80v-344h-94v327q0 65 -30 92t-78 27q-54 0 -95 -41t-41 -101v-304h-94v511h68zM497 720q0 -41 -27 -70q-30 -34 -85 -34q-30 0 -69.5 11.5t-59.5 17t-40 5.5q-45 0 -55 -34h-50q0 65 63 94q21 10 48 10q26 0 47.5 -5.5
t42.5 -12.5q55 -17 80 -17q44 0 55 35h50z" />
    <glyph glyph-name="ograve" unicode="&#xf2;" horiz-adv-x="574" 
d="M428 265q0 92 -41 139q-36 42 -100 42q-99 0 -130 -98q-11 -35 -11 -83v-19q0 -92 41 -139q36 -42 100 -42q99 0 130 99q11 34 11 82v19zM522 237q0 -121 -69 -187q-63 -60 -166 -60t-166 60q-69 66 -69 187v37q0 121 69 186q63 61 166 61t166 -61q69 -65 69 -186v-37z
M253 575l-115 142l1 3h89l95 -145h-70z" />
    <glyph glyph-name="oacute" unicode="&#xf3;" horiz-adv-x="574" 
d="M428 265q0 92 -41 139q-36 42 -100 42q-99 0 -130 -98q-11 -35 -11 -83v-19q0 -92 41 -139q36 -42 100 -42q99 0 130 99q11 34 11 82v19zM522 237q0 -121 -69 -187q-63 -60 -166 -60t-166 60q-69 66 -69 187v37q0 121 69 186q63 61 166 61t166 -61q69 -65 69 -186v-37z
M255 575l94 145h90l1 -3l-116 -142h-69z" />
    <glyph glyph-name="ocircumflex" unicode="&#xf4;" horiz-adv-x="574" 
d="M428 265q0 92 -41 139q-36 42 -100 42q-99 0 -130 -98q-11 -35 -11 -83v-19q0 -92 41 -139q36 -42 100 -42q99 0 130 99q11 34 11 82v19zM522 237q0 -121 -69 -187q-63 -60 -166 -60t-166 60q-69 66 -69 187v37q0 121 69 186q63 61 166 61t166 -61q69 -65 69 -186v-37z
M247 720h78l135 -145h-80l-94 89l-95 -89h-80z" />
    <glyph glyph-name="otilde" unicode="&#xf5;" horiz-adv-x="574" 
d="M428 265q0 92 -41 139q-36 42 -100 42q-99 0 -130 -98q-11 -35 -11 -83v-19q0 -92 41 -139q36 -42 100 -42q99 0 130 99q11 34 11 82v19zM522 237q0 -121 -69 -187q-63 -60 -166 -60t-166 60q-69 66 -69 187v37q0 121 69 186q63 61 166 61t166 -61q69 -65 69 -186v-37z
M480 720q0 -41 -26 -70q-31 -34 -86 -34q-30 0 -69.5 11.5t-59.5 17t-40 5.5q-45 0 -55 -34h-50q0 65 62 94q22 10 49 10q26 0 47.5 -5.5t41.5 -12.5q56 -17 81 -17q44 0 55 35h50z" />
    <glyph glyph-name="odieresis" unicode="&#xf6;" horiz-adv-x="574" 
d="M428 265q0 92 -41 139q-36 42 -100 42q-99 0 -130 -98q-11 -35 -11 -83v-19q0 -92 41 -139q36 -42 100 -42q99 0 130 99q11 34 11 82v19zM522 237q0 -121 -69 -187q-63 -60 -166 -60t-166 60q-69 66 -69 187v37q0 121 69 186q63 61 166 61t166 -61q69 -65 69 -186v-37z
M147 720h90v-98h-90v98zM335 720h91v-98h-91v98z" />
    <glyph glyph-name="divide" unicode="&#xf7;" 
d="M51 213v84h512v-84h-512zM266 141h83v-90h-83v90zM266 460h83v-91h-83v91z" />
    <glyph glyph-name="oslash" unicode="&#xf8;" horiz-adv-x="574" 
d="M447 466q75 -66 75 -192v-37q0 -121 -69 -187q-63 -60 -166 -60q-68 0 -120 27l-45 -72h-59l63 100q-74 66 -74 192v37q0 121 69 186q63 61 166 61q66 0 119 -27l46 74h59zM428 265q0 76 -30 123l-188 -302q31 -21 69 -21q37 0 63 10t45 32q41 47 41 139v19zM146 246
q0 -76 29 -122l188 301q-33 21 -69 21t-62 -10t-45 -32q-41 -47 -41 -139v-19z" />
    <glyph glyph-name="ugrave" unicode="&#xf9;" horiz-adv-x="618" 
d="M583 10q-30 -20 -63 -20q-34 0 -50.5 7t-27.5 19q-19 21 -21 58q-39 -57 -111 -77q-24 -7 -56 -7q-33 0 -66 10.5t-58 31.5q-52 47 -52 135v344h94v-327q0 -65 30 -92t78 -27q54 0 95 41t41 101v304h94v-411q0 -19 8.5 -27t19.5 -8q23 0 45 14v-69zM268 575l-115 142l1 3
h89l95 -145h-70z" />
    <glyph glyph-name="uacute" unicode="&#xfa;" horiz-adv-x="618" 
d="M583 10q-30 -20 -63 -20q-34 0 -50.5 7t-27.5 19q-19 21 -21 58q-39 -57 -111 -77q-24 -7 -56 -7q-33 0 -66 10.5t-58 31.5q-52 47 -52 135v344h94v-327q0 -65 30 -92t78 -27q54 0 95 41t41 101v304h94v-411q0 -19 8.5 -27t19.5 -8q23 0 45 14v-69zM259 575l94 145h90
l1 -3l-116 -142h-69z" />
    <glyph glyph-name="ucircumflex" unicode="&#xfb;" horiz-adv-x="618" 
d="M583 10q-30 -20 -63 -20q-34 0 -50.5 7t-27.5 19q-19 21 -21 58q-39 -57 -111 -77q-24 -7 -56 -7q-33 0 -66 10.5t-58 31.5q-52 47 -52 135v344h94v-327q0 -65 30 -92t78 -27q54 0 95 41t41 101v304h94v-411q0 -19 8.5 -27t19.5 -8q23 0 45 14v-69zM253 720h78l135 -145
h-80l-94 89l-95 -89h-80z" />
    <glyph glyph-name="udieresis" unicode="&#xfc;" horiz-adv-x="618" 
d="M583 10q-30 -20 -63 -20q-34 0 -50.5 7t-27.5 19q-19 21 -21 58q-39 -57 -111 -77q-24 -7 -56 -7q-33 0 -66 10.5t-58 31.5q-52 47 -52 135v344h94v-327q0 -65 30 -92t78 -27q54 0 95 41t41 101v304h94v-411q0 -19 8.5 -27t19.5 -8q23 0 45 14v-69zM155 720h90v-98h-90
v98zM343 720h91v-98h-91v98z" />
    <glyph glyph-name="yacute" unicode="&#xfd;" horiz-adv-x="512" 
d="M47 -95q31 -14 50 -14t32 3.5t27 15.5q34 29 55 95l-199 506h100l147 -377h4l145 377h92l-191 -491q-42 -103 -70 -138t-56 -51.5t-66 -16.5q-39 0 -70 14v77zM222 575l94 145h90l1 -3l-116 -142h-69z" />
    <glyph glyph-name="thorn" unicode="&#xfe;" horiz-adv-x="583" 
d="M177 65v-246h-94v901h94v-265q54 66 147 66q91 0 146 -63q61 -71 61 -203v-11q0 -121 -58 -190q-54 -64 -149 -64t-147 75zM437 256q0 150 -77 180q-24 10 -53 10q-63 0 -95 -41q-36 -47 -36 -149q0 -151 78 -182q24 -9 53 -9q62 0 94 41q36 47 36 150z" />
    <glyph glyph-name="ydieresis" unicode="&#xff;" horiz-adv-x="512" 
d="M47 -95q31 -14 50 -14t32 3.5t27 15.5q34 29 55 95l-199 506h100l147 -377h4l145 377h92l-191 -491q-42 -103 -70 -138t-56 -51.5t-66 -16.5q-39 0 -70 14v77zM120 720h90v-98h-90v98zM308 720h91v-98h-91v98z" />
    <glyph glyph-name="dotlessi" unicode="&#x131;" horiz-adv-x="260" 
d="M83 0v511h94v-511h-94z" />
    <glyph glyph-name="Lslash" unicode="&#x141;" horiz-adv-x="539" 
d="M33 364l62 31v291h98v-241l139 72v-71l-139 -72v-285h315l14 -89h-427v324l-62 -31v71z" />
    <glyph glyph-name="lslash" unicode="&#x142;" horiz-adv-x="298" 
d="M20 351l82 41v328h94v-280l82 41v-70l-82 -41v-370h-94v322l-82 -41v70z" />
    <glyph glyph-name="OE" unicode="&#x152;" horiz-adv-x="1032" 
d="M531 58q-70 -68 -186 -68q-123 0 -201 76q-83 82 -83 232v90q0 150 83 232q78 76 196 76t191 -68v58h450l-13 -89h-339v-202h307v-89h-307v-217h345l14 -89h-457v58zM531 388q0 166 -111 206q-35 13 -75 13q-41 0 -75 -12.5t-58 -38.5q-53 -56 -53 -168v-90
q0 -166 111 -206q34 -13 75 -13q40 0 74.5 12.5t58.5 38.5q53 56 53 168v90z" />
    <glyph glyph-name="oe" unicode="&#x153;" horiz-adv-x="933" 
d="M476 434q64 87 182 87h7q95 0 155 -58q59 -58 59 -158v-71h-357q3 -118 79 -156q26 -13 66 -13q39 0 64 15t38 35q21 32 21 75h89q0 -91 -61 -146q-59 -54 -153 -54h-4q-120 0 -185 87q-62 -87 -189 -87q-103 0 -166 60q-69 66 -69 187v37q0 121 69 186q63 61 166 61
q127 0 189 -87zM428 265q0 92 -41 139q-36 42 -100 42q-99 0 -130 -98q-11 -35 -11 -83v-19q0 -92 41 -139q36 -42 100 -42q99 0 130 99q11 34 11 82v19zM660 446q-56 0 -92 -34.5t-44 -104.5h262v12q0 60 -37 95q-34 32 -89 32z" />
    <glyph glyph-name="Scaron" unicode="&#x160;" horiz-adv-x="627" 
d="M151 215l-1 -21q0 -59 44.5 -87t119.5 -28t118.5 27.5t43.5 75.5t-30 70.5t-75.5 36.5t-98.5 26t-98.5 34t-75.5 59t-30 93t19.5 91t52.5 58q65 46 174 46q106 0 171 -45q71 -49 71 -147v-12h-98v15q0 49 -40 74.5t-102 25.5q-105 0 -138 -50q-12 -17 -12 -41
q0 -40 30 -61t75.5 -35t98.5 -26.5t98.5 -34t75.5 -58t30 -96.5q0 -61 -20 -101.5t-55 -65.5q-67 -48 -186 -48q-181 0 -240 110q-21 39 -21 95l1 20h98zM141 895h80l95 -89l94 89h80l-135 -145h-78z" />
    <glyph glyph-name="scaron" unicode="&#x161;" horiz-adv-x="534" 
d="M45 138l1 22h93v-10q0 -63 80 -80q24 -5 63 -5t74 18.5t35 52.5t-24.5 49.5t-61.5 24t-79.5 15.5t-79.5 22.5t-61.5 43t-24.5 78.5q0 71 56 111.5t153 40.5h9q89 0 143 -41q52 -40 52 -98l-1 -18h-93v9q0 73 -113 73q-91 0 -108 -45q-4 -12 -4 -22q0 -28 24.5 -42
t61.5 -22t79.5 -15.5t79.5 -23.5q86 -36 86 -122q0 -87 -63 -128q-56 -36 -154 -36h-15q-102 0 -157 46q-51 42 -51 102zM91 720h80l95 -89l94 89h80l-135 -145h-78z" />
    <glyph glyph-name="Ydieresis" unicode="&#x178;" horiz-adv-x="572" 
d="M335 265v-265h-98v265l-242 421h112l183 -319h4l181 319h101zM158 847h90v-98h-90v98zM346 847h91v-98h-91v98z" />
    <glyph glyph-name="Zcaron" unicode="&#x17d;" horiz-adv-x="596" 
d="M32 0v38l365 559h-341v89h491v-38l-366 -559h374v-89h-523zM125 895h80l95 -89l94 89h80l-135 -145h-78z" />
    <glyph glyph-name="zcaron" unicode="&#x17e;" horiz-adv-x="463" 
d="M36 0v38l249 398h-234v75h364v-37l-250 -399h258v-75h-387zM57 720h80l95 -89l94 89h80l-135 -145h-78z" />
    <glyph glyph-name="florin" unicode="&#x192;" horiz-adv-x="360" 
d="M-72 -96q31 -14 51 -14t30 2t19 8q21 15 26 54l71 482h-59l9 75h59l13 91q19 126 143 126q52 0 84 -19l-9 -69q-31 14 -60 14q-27 0 -38 -8q-23 -18 -28 -56l-12 -79h120l-9 -75h-120l-71 -494q-10 -67 -49 -96.5t-94 -29.5q-54 0 -84 19z" />
    <glyph glyph-name="circumflex" unicode="&#x2c6;" horiz-adv-x="536" 
d="M228 720h78l135 -145h-80l-94 89l-95 -89h-80z" />
    <glyph glyph-name="caron" unicode="&#x2c7;" horiz-adv-x="536" 
d="M92 720h80l95 -89l94 89h80l-135 -145h-78z" />
    <glyph glyph-name="breve" unicode="&#x2d8;" horiz-adv-x="520" 
d="M260 613q-77 0 -136 41q-56 39 -56 83h67q8 -27 43 -44.5t82 -17.5q46 0 81.5 17.5t43.5 44.5h68q0 -45 -57 -83q-60 -41 -136 -41z" />
    <glyph glyph-name="dotaccent" unicode="&#x2d9;" horiz-adv-x="280" 
d="M187 716.5q19 -19.5 19 -47.5t-19.5 -46.5t-46.5 -18.5t-46.5 19.5t-19.5 47.5q0 27 19 46t47 19t47 -19.5z" />
    <glyph glyph-name="ring" unicode="&#x2da;" horiz-adv-x="340" 
d="M271 645q0 -41 -29.5 -70.5t-71.5 -29.5q-41 0 -71 29q-30 28 -30 71q0 42 29.5 71.5t71.5 29.5q40 0 71 -30q30 -28 30 -71zM209.5 607.5q16.5 15.5 16.5 38.5q0 22 -16.5 37.5t-39.5 15.5t-39.5 -15.5t-16.5 -38.5t16.5 -38t39.5 -15t39.5 15.5z" />
    <glyph glyph-name="ogonek" unicode="&#x2db;" horiz-adv-x="340" 
d="M242 -82l13 -37q-41 -24 -89 -24q-65 0 -88 37q-9 14 -9 37q0 22 18 39.5t36 29.5h54q-15 -8 -30.5 -24.5t-15.5 -33.5q0 -38 44 -38q22 0 67 14z" />
    <glyph glyph-name="tilde" unicode="&#x2dc;" horiz-adv-x="364" 
d="M385 717q0 -41 -27 -70q-30 -34 -85 -34q-30 0 -69.5 11.5t-59.5 17t-40 5.5q-45 0 -55 -34h-50q0 65 63 94q21 10 48 10q26 0 47.5 -5.5t42.5 -11.5q55 -18 80 -18q44 0 55 35h50z" />
    <glyph glyph-name="hungarumlaut" unicode="&#x2dd;" horiz-adv-x="442" 
d="M51 575l95 145h89l1 -3l-115 -142h-70zM206 575l94 145h90l1 -3l-115 -142h-70z" />
    <glyph glyph-name="pi" unicode="&#x3c0;" horiz-adv-x="628" 
d="M20 482q41 29 161 29h423l-9 -74h-87v-285q0 -105 15 -152h-89q-17 26 -17 143v294h-174q-8 -179 -47 -350q-12 -55 -25 -87h-90q43 119 64 330q6 60 7 107q-83 0 -119 -12z" />
    <glyph glyph-name="endash" unicode="&#x2013;" horiz-adv-x="638" 
d="M69 223v95h500v-95h-500z" />
    <glyph glyph-name="emdash" unicode="&#x2014;" horiz-adv-x="1058" 
d="M72 223v94h910v-94h-910z" />
    <glyph glyph-name="quoteleft" unicode="&#x2018;" horiz-adv-x="224" 
d="M148 686l-27 -124h41v-111h-101v85l35 150h52z" />
    <glyph glyph-name="quoteright" unicode="&#x2019;" horiz-adv-x="219" 
d="M75 451l27 124h-41v111h101v-85l-35 -150h-52z" />
    <glyph glyph-name="quotesinglbase" unicode="&#x201a;" horiz-adv-x="238" 
d="M83 -124l27 124h-41v111h101v-85l-35 -150h-52z" />
    <glyph glyph-name="quotedblleft" unicode="&#x201c;" horiz-adv-x="366" 
d="M148 686l-27 -124h41v-111h-101v85l35 150h52zM290 686l-27 -124h41v-111h-101v85l35 150h52z" />
    <glyph glyph-name="quotedblright" unicode="&#x201d;" horiz-adv-x="361" 
d="M217 451l27 124h-41v111h101v-85l-35 -150h-52zM75 451l27 124h-41v111h101v-85l-35 -150h-52z" />
    <glyph glyph-name="quotedblbase" unicode="&#x201e;" horiz-adv-x="380" 
d="M225 -124l27 124h-41v111h101v-85l-35 -150h-52zM83 -124l27 124h-41v111h101v-85l-35 -150h-52z" />
    <glyph glyph-name="dagger" unicode="&#x2020;" horiz-adv-x="510" 
d="M282 435l20 -605h-94l20 605l-205 -18v93l205 -17l-17 193h88l-17 -193l205 17v-93z" />
    <glyph glyph-name="daggerdbl" unicode="&#x2021;" horiz-adv-x="533" 
d="M293 434q6 -53 17 -178l-8 -90t-9 -90q147 11 205 17v-93l-205 18q6 -55 17 -193h-87q11 138 17 193l-205 -18v93q51 -5 102.5 -9t102.5 -8q-5 45 -9 90l-8 90q11 125 17 178q-47 -5 -205 -17v93l205 -18q-5 52 -17 194h87q-12 -142 -17 -194l205 18v-93q-48 4 -96.5 8
t-108.5 9z" />
    <glyph glyph-name="bullet" unicode="&#x2022;" horiz-adv-x="600" 
d="M450 344q0 -32 -12 -59.5t-32 -48.5q-44 -45 -107 -45q-62 0 -105 45q-44 45 -44 108q0 64 44 108t105 44q62 0 106.5 -44.5t44.5 -107.5z" />
    <glyph glyph-name="ellipsis" unicode="&#x2026;" horiz-adv-x="735" 
d="M69 111h102v-111h-102v111zM317 111h102v-111h-102v111zM564 111h102v-111h-102v111z" />
    <glyph glyph-name="perthousand" unicode="&#x2030;" horiz-adv-x="1033" 
d="M180 0h-70l418 686h68zM282 457q0 -51 -33 -85q-34 -36 -88 -36h-7q-54 0 -88 36q-33 34 -33 85v107q0 51 33 86q34 35 88 35h7q54 0 88 -35q33 -35 33 -86v-107zM218 571q0 25 -15.5 42t-44.5 17t-45 -17t-16 -42v-121q0 -25 16 -42t45 -17t44.5 17t15.5 42v121z
M672 120q0 -51 -33 -86q-34 -35 -88 -35h-7q-54 0 -88 35q-33 35 -33 86v107q0 51 33 85q34 36 88 36h7q54 0 88 -36q33 -34 33 -85v-107zM608 234q0 25 -15.5 42t-44.5 17t-45 -17t-16 -42v-121q0 -25 16 -42t45 -17t44.5 17t15.5 42v121zM1004 120q0 -51 -33 -86
q-34 -35 -88 -35h-6q-54 0 -88 35q-33 35 -33 86v107q0 51 33 85q34 36 88 36h6q54 0 88 -36q33 -34 33 -85v-107zM940 234q0 25 -15.5 42t-43.5 17q-29 0 -45 -17t-16 -42v-121q0 -25 16 -42t45 -17q28 0 43.5 17t15.5 42v121z" />
    <glyph glyph-name="guilsinglleft" unicode="&#x2039;" horiz-adv-x="278" 
d="M171 163l-122 174l122 174h51l-94 -174l94 -174h-51z" />
    <glyph glyph-name="guilsinglright" unicode="&#x203a;" horiz-adv-x="278" 
d="M56 163l94 174l-94 174h51l122 -174l-122 -174h-51z" />
    <glyph glyph-name="fraction" unicode="&#x2044;" horiz-adv-x="476" 
d="M61 0h-59l420 686h56z" />
    <glyph glyph-name="Euro" unicode="&#x20ac;" horiz-adv-x="562" 
d="M525 2q-44 -10 -95 -10q-52 0 -101 16.5t-89 47.5q-85 69 -110 182h-100v65h90q-1 9 -1 19v38q0 8 1 17h-90v64h99q25 117 111 187q82 65 197 65q35 0 88 -8v-91q-34 10 -79 10q-81 0 -138.5 -44.5t-79.5 -118.5h198v-64h-210q-2 -8 -2 -17v-38q0 -10 2 -19h210v-65h-196
q24 -74 83 -116t140 -42q28 0 72 13v-91z" />
    <glyph glyph-name="trademark" unicode="&#x2122;" horiz-adv-x="897" 
d="M236 626v-338h-65v338h-125v60h314v-60h-124zM758 603l-128 -315h-62q-32 78 -63 156t-63 156v-312h-58v398h99q30 -75 60 -150.5t61 -150.5l123 301h98v-398h-65v158q0 78 -2 157z" />
    <glyph glyph-name="Omega" unicode="&#x2126;" horiz-adv-x="699" 
d="M635 337q0 -169 -99 -257q42 4 84 10h35v-90h-264v49q70 13 105 69.5t35 178.5v78q0 187 -107 222q-33 11 -75 11t-75 -12t-56 -40q-47 -57 -47 -181v-78q0 -174 77 -224q26 -17 61 -24v-49h-264v90h35q20 -3 40 -5t45 -5q-98 83 -98 265v25q0 166 81 250q72 75 194 75
h17q191 0 254 -175q22 -62 22 -150v-33z" />
    <glyph glyph-name="partialdiff" unicode="&#x2202;" horiz-adv-x="565" 
d="M172 696h103q98 0 161 -65q65 -66 65 -167v-243q0 -103 -67 -167q-65 -64 -166 -64h-8q-100 0 -166 62q-66 63 -66 166q0 96 62 155q62 58 155 58q45 0 88.5 -19t71.5 -55v120q0 51 -39 92t-96 41h-98v86zM405 225q0 57 -40 95t-102 38q-60 0 -100 -38t-40 -95v-20
q0 -57 40 -95t102 -38q60 0 100 38t40 95v20z" />
    <glyph glyph-name="Delta" unicode="&#x2206;" horiz-adv-x="622" 
d="M25 65l234 621h103l235 -621v-65h-572v65zM113 75h396l-198 522z" />
    <glyph glyph-name="product" unicode="&#x220f;" horiz-adv-x="749" 
d="M610 611v-709h-102v709h-267v-709h-102v709h-115v97h701v-97h-115z" />
    <glyph glyph-name="summation" unicode="&#x2211;" horiz-adv-x="606" 
d="M27 -98v63l276 341l-264 336v66h519v-95h-369v-4l231 -291l-252 -310l1 -4h407v-102h-549z" />
    <glyph glyph-name="minus" unicode="&#x2212;" 
d="M51 312h512v-91h-512v91z" />
    <glyph glyph-name="radical" unicode="&#x221a;" horiz-adv-x="566" 
d="M243 -148q-92 237 -169 441l-77 -30l-20 60l162 68q31 -88 63 -173.5t52 -140t24.5 -73t8.5 -34.5q54 211 105 421.5t103 421.5h80l-242 -961h-90z" />
    <glyph glyph-name="infinity" unicode="&#x221e;" horiz-adv-x="764" 
d="M726 282q0 -38 -13.5 -69.5t-36.5 -53.5q-47 -46 -110 -46q-45 0 -88.5 25.5t-96.5 90.5q-51 -59 -79 -78q-54 -38 -110 -38q-63 0 -108 47q-47 48 -47 119q0 73 47 121q45 48 110 48q64 0 108.5 -33t83.5 -82q20 20 39 40.5t41 36.5q48 38 105 38q68 0 111 -47
q44 -47 44 -119zM349 276q-73 110 -154 110q-44 0 -70 -31t-26 -77q0 -42 28 -72t73 -30q53 0 110 59q16 16 30 31zM566 386q-55 0 -120 -74q-16 -17 -29 -30q49 -59 74 -77q42 -29 71 -29t46.5 9.5t29.5 24.5q25 30 25 74t-27.5 73t-69.5 29z" />
    <glyph glyph-name="integral" unicode="&#x222b;" horiz-adv-x="267" 
d="M111 -142q-27 597 -27 780q0 63 54 91q42 21 104 21v-49q-27 0 -48 -9q-39 -19 -39 -48q28 -626 28 -782q0 -64 -54 -92q-38 -20 -103 -20v50q50 0 76 30q9 11 9 28z" />
    <glyph glyph-name="approxequal" unicode="&#x2248;" 
d="M589 360q-38 -42 -98 -66q-30 -12 -63 -12q-34 0 -62.5 10.5t-57 22.5t-58 22.5t-64.5 10.5q-54 0 -115 -39q-26 -18 -46 -39v85q20 21 44 37q61 41 119 41q32 0 60.5 -10.5t57 -22.5t58 -22.5t63.5 -10.5q59 0 116 39q26 17 46 39v-85zM589 151q-38 -42 -98 -66
q-30 -12 -63 -12q-34 0 -62.5 10.5t-57 22.5t-58 22.5t-64.5 10.5q-54 0 -115 -39q-26 -18 -46 -39v85q20 21 44 37q61 41 119 41q32 0 60.5 -10.5t57 -22.5t58 -22.5t63.5 -10.5q59 0 116 39q26 17 46 39v-85z" />
    <glyph glyph-name="notequal" unicode="&#x2260;" 
d="M365 401l78 110h79l-76 -110h113v-83h-166q-23 -32 -45.5 -64.5t-45.5 -64.5h257v-84h-309l-74 -105h-82q49 71 74 105h-112v84h165l91 129h-256v83h309z" />
    <glyph glyph-name="lessequal" unicode="&#x2264;" 
d="M559 104q-370 113 -509 154v107q128 39 254.5 78t254.5 77v-90q-303 -84 -429 -118q303 -84 429 -118v-90zM49 83h510v-83h-510v83z" />
    <glyph glyph-name="greaterequal" unicode="&#x2265;" 
d="M56 520q11 -3 509 -155v-107q-139 -41 -509 -154v90q132 36 428 118q-169 45 -428 118v90zM566 0h-510v83h510v-83z" />
    <glyph glyph-name="lozenge" unicode="&#x25ca;" horiz-adv-x="490" 
d="M194 0l-165 343l165 343h103l164 -343l-164 -343h-103zM246 611l-134 -268l134 -269q66 135 133 269q-67 133 -133 268z" />
    <glyph glyph-name="uniF8FF" unicode="&#xf8ff;" horiz-adv-x="0" 
 />
    <glyph glyph-name="fi" unicode="&#xfb01;" horiz-adv-x="601" 
d="M103 580q0 148 119 148q56 0 94 -19v-69q-31 13 -51 13q-21 0 -31 -2t-18 -9q-19 -14 -19 -52v-79h119v-75h-119v-436h-94v436h-56v75h56v69zM426 0v511h94v-511h-94zM424 720h98v-87h-98v87z" />
    <glyph glyph-name="fl" unicode="&#xfb02;" horiz-adv-x="607" 
d="M103 580q0 148 119 148q56 0 94 -19v-69q-31 13 -51 13q-21 0 -31 -2t-18 -9q-19 -14 -19 -52v-79h119v-75h-119v-436h-94v436h-56v75h56v69zM426 0v720h94v-720h-94z" />
    </font>
</defs>
</svg>
